#TITLE:DO ME (H.I.G.E.O MIX);
#SUBTITLE:;
#ARTIST:MUSTACHE MEN;
#TITLETRANSLIT:;
#SUBTITLETRANSLIT:;
#ARTISTTRANSLIT:;
#GENRE:;
#CREDIT:;
#MUSIC:DO ME (H.I.G.E.O MIX).mp3;
#BANNER:DO ME (H.I.G.E.O MIX).png;
#BACKGROUND:DO ME (H.I.G.E.O MIX)-bg.png;
#CDTITLE:;
#SAMPLESTART:14.813;
#SAMPLELENGTH:10.615;
#SELECTABLE:YES;
#OFFSET:-0.044;
#BPMS:0.000=130.000;
#STOPS:;
#DISPLAYBPM:130.000;
#BGCHANGES:;
#FGCHANGES:;

//--------------- dance-single - HellKiteChaos ----------------
#NOTES:
     dance-single:
     HellKiteChaos:
     Challenge:
     13:
     0,0,0,0,0:
0000
0000
0000
0000
,
0000
0000
0000
0000
,
0000
0000
0000
0000
,
0001
1000
0000
0001
0100
0001
0000
1000
0010
0000
1000
0000
0000
0100
0000
0000
,
0010
0000
0010
0000
0100
0000
0010
0000
0002
0000
0000
0203
0000
0000
0302
0000
,
0000
0003
1000
0000
0001
0000
0100
0000
0020
0000
0000
2030
0000
0000
3100
0000
,
0010
0000
0001
0000
1000
0000
0010
0000
0200
0000
0000
0302
0000
0000
1003
0000
,
0001
0010
0001
0000
1000
0100
0010
0000
0001
1000
0001
0000
0000
0100
0000
0000
,
0010
0000
1000
0000
0100
0000
1000
0000
0010
0000
0100
0010
0000
0100
0010
0000
,
1000
0000
0100
0010
0000
0100
0010
0000
0001
0000
1000
0000
0010
0000
0100
0000
,
1002
0000
0013
0000
0100
0000
0010
0000
0001
0000
0100
0010
0000
0100
0010
0000
,
1000
0000
0100
0010
0000
0100
0010
0000
0001
0000
0100
0000
0010
0000
1000
0000
,
0001
0000
0100
0001
0000
0100
0001
0000
1000
0000
0100
1000
0000
0100
1000
0000
,
0001
0000
0010
0001
0000
0010
0001
0000
0100
0000
0010
0000
1000
0000
0100
0000
,
1000
0000
0010
1000
0000
0001
0100
0000
0001
0000
0010
0001
0000
1000
0100
0000
,
1000
0000
0001
0100
0000
0010
1000
0000
0001
0000
1000
0000
1001
0000
0000
0000
,
0000
1100
0000
1100
0000
1000
0100
0010
,
0000
0011
0000
0011
0000
0001
1000
0010
,
0000
1010
0000
1010
0000
0010
1000
0100
,
0010
0001
0000
1000
0100
0000
0010
0001
0000
1000
0100
0010
0001
0000
0000
0000
,
0100
0000
0001
0000
0010
0000
0001
0000
0100
0000
0010
0100
0000
0010
0100
0000
,
0001
0000
0010
0100
0000
0010
0100
0000
1000
0000
0001
0000
0100
0000
0010
0000
,
2001
0000
3100
0000
0010
0000
0100
0000
1000
0000
0010
0100
0000
0010
0100
0000
,
0001
0000
0010
0100
0000
0010
0100
0000
1000
0000
0010
0000
0100
0000
0001
0000
,
1000
0000
0010
1000
0000
0010
1000
0000
0001
0000
0010
0001
0000
0010
0001
0000
,
1000
0000
0100
1000
0000
0100
1000
0000
0010
0000
0100
0000
0001
0000
0010
0000
,
0001
0000
0100
0001
0000
1000
0010
0000
1000
0000
0100
1000
0000
0001
0010
0000
,
0001
0000
1000
0010
0000
0100
0001
0000
1000
0000
0001
0000
1001
0000
0000
0000
,
1000
0000
0001
0100
0001
0100
0000
0100
0000
0010
1000
0000
0001
0000
1001
0000
,
1001
0000
0001
0010
0001
0010
0000
0100
0010
0001
1000
0000
0001
0000
0100
0000
,
0010
0000
1000
0010
1000
0010
0000
0010
0000
0100
0001
0000
1000
0000
0001
0000
,
1001
0000
0101
1010
0102
0000
0000
0000
,
0103
0000
0100
0000
0010
0000
0100
0000
0002
0000
0000
0023
0000
0000
0032
0000
,
0000
0003
1000
0000
0001
0000
0010
0000
0200
0000
0000
2300
0000
0000
3010
0000
,
0100
0000
0001
0000
1000
0000
0100
0000
0020
0000
0000
0032
0000
0000
1003
0000
,
0001
0100
0001
0000
1000
0010
0100
0000
0001
1000
0001
0000
0000
0010
0000
0000
,
0100
0000
1000
0000
0010
0000
1000
0000
0100
0000
0010
0100
0000
0010
0100
0000
,
1000
0000
0010
0100
0000
0010
0100
0000
0001
0000
1000
0000
0100
0000
0010
0000
,
1002
0000
0103
0000
0010
0000
0100
0000
0001
0000
0010
0100
0000
0010
0100
0000
,
1000
0000
0010
0100
0000
0010
0100
0000
0001
0000
0010
0000
0100
0000
1000
0000
,
0100
0000
1000
0000
0010
0000
1000
0000
0100
0000
0010
0100
0000
0010
0100
0000
,
1000
0000
0010
0100
0000
0010
0100
0000
0001
0000
1000
0000
0100
0000
0010
0000
,
1002
0000
0103
0000
0010
0000
0100
0000
0001
0000
0010
0100
0000
0010
0100
0000
,
1000
0000
0010
0100
0000
0010
0100
0000
0001
0000
0010
0000
0100
0000
1000
0000
,
0002
0000
0000
0000
0003
0000
0000
1001
,
0100
0000
0000
1001
0000
0000
1001
0000
0100
0000
0000
0110
0000
0000
0010
0000
,
2002
3003
0000
0000
;

//--------------- dance-double - HellKiteChaos ----------------
#NOTES:
     dance-double:
     HellKiteChaos:
     Challenge:
     12:
     0,0,0,0,0:
00000000
00000000
00000000
00000000
,
00000000
00000000
00000000
00000000
,
00000000
00000000
00000000
00000000
,
00001000
00010000
00000000
00001000
01000000
00001000
00000000
00010000
00000100
00000000
00020000
00000000
00000000
00032000
00000000
00000000
,
01003000
00000000
00010000
00000000
10000000
00000000
01000000
00000000
20000000
00000000
00000000
32000000
00000000
00000000
03020000
00000000
,
00000000
00030000
00001000
00000000
00010000
00000000
00001000
00000000
00000200
00000000
00000000
00000302
00000000
00000000
00000203
00000000
,
00000301
00000000
00001000
00000000
00000100
00000000
00001000
00000000
00000002
00000000
00000000
00000203
00000000
00000000
00002300
00000000
,
00013000
00000000
00001000
00000000
01000000
00000000
00010000
00000000
10000000
00000000
01000000
00000000
00000000
10000000
00000000
00000000
,
00001000
00000000
00010000
00000000
01000000
00000000
00010000
00000000
00002000
00000000
00000000
00003100
00000000
00000000
00001000
00000000
,
00020000
00000000
00000000
01030000
00000000
00000000
00010000
00000000
00001000
00000000
00000000
00011000
00000000
00000000
00010000
00000000
,
00001000
00000000
00010000
00000000
00001000
00000000
00010000
00000000
00002000
00000000
00000000
00003100
00000000
00000000
00001000
00000000
,
00020000
00000000
00000000
01030000
00000000
00000000
00010000
00000000
00001000
00000000
00000100
00000000
00000001
00000000
00000100
00000000
,
00001000
00000000
00001000
00000200
00000000
00000300
00000001
00000000
00001000
00000000
00001000
00000200
00000000
00000300
00000001
00000000
,
00000100
00000000
00000100
00002000
00000000
00003000
00000001
00000000
00000100
00000000
00001000
00000000
00010000
00000000
01000000
00000000
,
10000000
00000000
01000000
00020000
00000000
00030000
01000000
00000000
10000000
00000000
00010000
02000000
00000000
03000000
10000000
00000000
,
01000000
00000000
00010000
20000000
00000000
30000000
01000000
00000000
00010000
00000000
01000000
00000000
10000000
00000000
00010000
00000000
,
01000000
01010000
00000000
01001000
00000000
00010000
00001000
00000100
,
00000000
00000101
00000000
00001001
00000000
00000001
00001000
00000100
,
00000000
00010100
00000000
00011000
00000000
00010000
01000000
10000000
,
01000000
00010000
00000000
01000000
10000000
00000000
01000000
00010000
00000000
00001000
00010000
00000000
00011000
00000000
00000000
00000000
,
00001000
00000000
00010000
00000000
01000000
00000000
00010000
00000000
00002000
00000000
00000000
00003100
00000000
00000000
00001000
00000000
,
00020000
00000000
00000000
01030000
00000000
00000000
00010000
00000000
00001000
00000000
00000100
00000000
00000001
00000000
00000100
00000000
,
00001000
00000000
00010000
00000000
01000000
00000000
00010000
00000000
00002000
00000000
00000000
00003100
00000000
00000000
00001000
00000000
,
00020000
00000000
00000000
01030000
00000000
00000000
00010000
00000000
00001000
00000000
00010000
00000000
01000000
00000000
10000000
00000000
,
00010000
00000000
10000000
01000000
00000000
10000000
01000000
00000000
10000000
00000000
00001000
01000000
00000000
00001000
01000000
00000000
,
00001000
00000000
00010000
00000100
00000000
00010000
00000100
00000000
00001000
00000000
00000100
00000000
00000001
00000000
00000100
00000000
,
00001000
00000000
00000100
00010000
00000000
00000100
00010000
00000000
00001000
00000000
01000000
00001000
00000000
01000000
00001000
00000000
,
00010000
00000000
01000000
10000000
00000000
01000000
10000000
00000000
00010000
00000000
01000000
00000000
10000000
00000000
01000000
00000000
,
00001000
00010000
00001000
00000000
01010000
00000000
00001100
00000000
,
00010000
00001000
00010000
00000000
00001100
00000000
01010000
00000000
,
00001000
00010000
00001000
00000000
00001000
00010000
01000000
00000000
,
10000000
00010000
10000000
00010000
02000000
00000000
00000000
00000000
,
03010000
10000000
01000000
00010000
01000000
10000000
01000000
00001000
,
01000000
00010000
01000000
10000000
00010000
01000000
10000000
01000000
,
00001000
01000000
00010000
01000000
00001000
10000000
01000000
10000000
,
00001000
00000000
00010000
00000000
00000001
00000000
00000100
00000000
00000001
00000000
00001000
00000000
00000000
00000100
00000000
00000000
,
00010000
00000000
00001000
00000000
00010000
00000000
00001000
00000000
00020000
00000000
00000000
01030000
00000000
00000000
00010000
00000000
,
00002000
00000000
00000000
00003100
00000000
00000000
00001000
00000000
00010000
00000000
01000000
00000000
10000000
00000000
01000000
00000000
,
00010000
00000000
00001000
00000000
00010000
00000000
00001000
00000000
00020000
00000000
00000000
01030000
00000000
00000000
00010000
00000000
,
00002000
00000000
00000000
00003100
00000000
00000000
00001000
00000000
00010000
00000000
00001000
00000000
00000100
00000000
00000001
00000000
,
00001000
00000000
00000100
00000000
00010000
00000000
00001000
00000000
02000000
00000000
00000000
13000000
00000000
00000000
01000000
00000000
,
00002000
00000000
00000000
00003100
00000000
00000000
00000001
00000000
00000100
00000000
00001000
00000000
00010000
00000000
00001000
00000000
,
00010000
00000000
00000100
00000000
00000001
00000000
00000100
00000000
00002000
00000000
00000000
00003100
00000000
00000000
00001000
00000000
,
00000200
00000000
00000000
01000300
00000000
00000000
00010000
00000000
01000000
00000000
00010000
00000000
01000000
00000000
00002000
00000000
,
00020000
00000000
00000000
00000000
00033000
00000000
00000000
00001000
,
01000000
00000000
00000000
00001000
00000000
00000000
00010000
00000000
00000100
00000000
00000000
00010000
00000000
00000000
00000200
00000000
,
02000000
00000000
03000300
00000000
;
