#TITLE:DEAD END;
#SUBTITLE:;
#ARTIST:N&S;
#TITLETRANSLIT:;
#SUBTITLETRANSLIT:;
#ARTISTTRANSLIT:;
#GENRE:Dance Dance Revolution 3rd Mix,Dancing Stage Euromix 1;
#CREDIT:;
#MUSIC:DEAD END.mp3;
#BANNER:DEAD END.png;
#BACKGROUND:DEAD END-bg.png;
#CDTITLE:;
#SAMPLESTART:53.094;
#SAMPLELENGTH:10.421;
#SELECTABLE:YES;
#OFFSET:-0.042;
#BPMS:0.000=190.000;
#STOPS:32.000=0.947
,261.000=0.947
;
#DISPLAYBPM:190.000;
#BGCHANGES:;
#FGCHANGES:;

//--------------- dance-single - HellKiteChaos ----------------
#NOTES:
     dance-single:
     HellKiteChaos:
     Challenge:
     15:
     0,0,0,0,0:
0000
0000
0000
0000
,
0000
0000
0000
0000
,
0000
0000
0000
0000
,
0000
0000
0000
0000
,
2000
0000
0002
3000
,
2000
0003
0002
3000
,
2000
0003
0002
3000
,
2000
0003
0002
3003
,
0000
0000
0000
0000
0001
0000
0100
0000
0010
0000
1000
0100
1000
0000
0010
0000
,
0100
0000
0001
0010
0001
0000
0100
0000
0010
0000
1000
0100
1000
0000
0010
0000
,
0000
0000
0100
0000
0001
0000
0010
0000
0001
0000
0100
0010
0100
0000
0010
0000
,
1000
0000
0100
0010
0100
0000
1000
0000
0010
0000
0100
0010
0100
0000
0001
0000
,
0000
0000
0010
0000
0100
0000
1000
0000
0010
0000
1000
0100
1000
0000
0010
0000
,
0100
0000
0001
0010
0001
0000
0100
0000
0010
0000
1000
0100
1000
0000
0010
0000
,
0000
0000
0100
0000
0001
0000
0010
0000
0001
0000
0100
0010
0100
0000
0001
0000
,
0010
0000
0100
0010
0100
0000
1000
0000
0010
0000
0100
0010
0100
0000
0001
0000
,
0000
0000
0010
0000
0100
0000
1000
0000
0001
0000
0100
0010
1000
0000
0010
0000
,
0100
0000
0001
0010
0100
0000
0010
0000
0001
0000
0100
0010
1000
0000
0010
0000
,
0100
0000
0010
0000
0100
0000
0001
0000
1000
0000
0001
1000
0100
0000
0010
0000
,
0100
0000
1000
0001
0100
0000
0010
0000
0100
0000
0001
1000
0100
0000
0010
0000
,
0100
0000
0010
0000
0100
0000
1000
0000
0001
0000
1000
0001
0100
0000
0001
0000
,
0100
0000
0010
0100
0001
0000
0010
0000
0100
0000
1000
0001
0100
0000
0010
0000
,
0100
0000
0010
0000
0100
0000
0001
0000
1000
0000
0001
0010
0100
0000
1000
0000
,
0001
0000
0100
0010
1000
0000
0001
0000
1000
0000
0000
0000
0001
0000
1000
0000
,
0001
1000
0110
0001
1000
0100
0000
0100
,
0000
0000
0100
0000
0010
0000
0100
0000
0100
0000
0010
0000
0100
0010
0001
0000
,
1000
1001
0000
0101
0001
0100
0000
0100
,
0010
0010
0100
0200
0000
0310
0000
0100
,
0000
0010
1001
1000
0000
0001
0000
1000
,
0000
0001
0000
0001
1000
1000
0001
1001
,
0000
0110
0000
1001
0010
0100
0010
1000
,
0001
0000
0000
0000
1000
0000
0000
0101
0000
0000
0001
0000
1000
0000
0000
1100
,
0000
0000
0100
0000
0010
0000
0000
0011
0000
0000
0001
0000
1000
0000
0000
0000
,
0000
4000
3004
4003
,
3004
4003
3004
4003
,
3004
4003
3004
4003
,
3004
4003
3004
4003
,
3004
4003
0000
3400
,
0000
0340
0000
0034
,
0000
0000
0000
0000
1003
0000
0001
0000
1000
0000
0001
0000
0100
0010
0100
0010
,
0100
0010
0100
0010
0100
0000
0000
0000
0000
0000
0000
0000
0000
0000
0000
0000
,
0000
0000
0000
0000
0001
0000
1000
0000
0001
0000
0010
0001
0100
0000
0001
0000
,
1000
0000
0010
1000
0100
0000
1000
0000
0001
0000
0010
0001
0100
0000
0010
0000
,
0000
0000
0010
0000
1000
0000
0100
0000
1000
0000
0010
1000
0100
0000
1000
0000
,
0001
0000
0010
0001
0100
0000
0001
0000
1000
0000
0010
1000
0100
0000
0010
0000
,
0000
0000
0010
0000
0001
0000
1000
0000
0001
0000
0100
0001
0010
0000
0001
0000
,
1000
0000
0100
1000
0010
0000
1000
0000
0001
0000
0100
0001
0010
0000
0100
0000
,
0000
0000
0100
0000
1000
0000
0001
0000
1000
0000
0100
1000
0010
0000
1000
0000
,
0001
0000
0010
0001
0100
0000
0001
0000
1000
0000
0100
1000
0010
0000
0100
0000
,
0010
0000
0100
0000
0001
0000
0001
0000
0100
0000
0010
1000
0100
0000
1000
0000
,
1000
0000
0010
1000
0100
0000
1000
0000
1000
0000
0010
1000
0100
0000
1000
0000
,
0000
0000
0001
0000
1000
0000
1000
0000
0001
0000
0010
0001
0100
0000
0001
0000
,
0001
0000
0010
0001
0100
0000
0001
0000
0001
0000
0010
0001
0100
0000
0001
0000
,
0000
0000
0001
0000
0100
0000
0010
0000
1000
0000
0001
0010
0100
0000
1000
0000
,
0001
0000
0100
0010
1000
0000
0001
0000
1000
0000
0001
0010
0100
0000
1000
0000
,
0000
0000
0001
0000
0010
0000
0100
0000
1000
0000
0010
0100
0001
0000
1000
0000
,
0100
0000
0010
0001
1000
0000
0010
0000
0100
0000
0001
1000
0100
0000
0010
0000
,
0000
0010
0011
0011
0011
0012
0000
1003
,
0100
0000
1000
0000
0001
0100
0001
0100
0002
0000
1000
0000
1000
0000
1003
0000
,
0000
0000
1100
1100
1100
2100
0000
3001
,
1000
0000
0001
0000
1000
0010
1000
0010
2000
0000
0001
0000
0001
0000
3001
0000
,
1000
0001
0110
0110
0110
0210
0000
0310
,
0100
0000
0010
0000
0001
0000
1000
0100
2000
0000
0001
0000
0001
0000
3001
0000
,
0000
0000
1001
1001
1001
2001
0000
3002
,
0000
0000
0003
0000
0100
0010
1000
0001
0100
0000
0010
0100
0010
0000
1000
0000
,
0001
0000
0000
0000
2001
0000
0000
0100
,
0000
3100
0010
0001
2000
0000
0000
3002
,
0000
0103
0010
1000
0002
0000
0000
0203
,
0000
0310
0100
0001
2000
0000
0000
3200
,
0000
0000
0310
0000
0100
0000
1000
0000
0001
0000
1000
0000
0010
1000
0100
0000
,
1000
0000
0001
0000
0010
0001
0100
0000
0001
0000
1000
0000
0100
1000
0010
0000
,
1000
0000
0001
0000
0100
0001
0010
0000
0001
0000
1000
0000
0010
1000
0100
0000
,
1000
0000
1000
0000
0010
1000
0100
0000
1000
0000
0001
0000
0010
0001
0100
0000
,
0001
0000
0001
0000
0010
0001
0100
0001
0010
0000
0000
1001
0000
0000
0101
0000
,
0000
0000
0001
1000
0001
1000
0001
0000
1000
0000
0000
1100
0000
0000
0011
0000
,
2200
0000
3300
0000
;

//--------------- dance-double - HellKiteChaos ----------------
#NOTES:
     dance-double:
     HellKiteChaos:
     Challenge:
     15:
     0,0,0,0,0:
00000000
00000000
00000000
00000000
,
00000000
00000000
00000000
00000000
,
00000000
00000000
00000000
00000000
,
00000000
00000000
00000000
00000000
,
00020000
00000000
00032000
00000000
,
00023000
00000000
00032000
00000000
,
00023000
00000000
00032000
00000000
,
00023000
00000000
00002000
00000000
,
00033000
00000000
00000000
00000000
00010000
00000000
00000100
00000000
00001000
00000000
00000010
00000100
00000010
00000000
00001000
00000000
,
00000001
00000000
00000010
00000100
00000010
00000000
00000001
00000000
00001000
00000000
00000010
00000100
00000010
00000000
00010000
00000000
,
00000000
00000000
00001000
00000000
01000000
00000000
00010000
00000000
10000000
00000000
01000000
00100000
01000000
00000000
10000000
00000000
,
00010000
00000000
01000000
00100000
01000000
00000000
00010000
00000000
10000000
00000000
01000000
00100000
01000000
00000000
10000000
00000000
,
00000000
00000000
00010000
00000000
01000000
00000000
00001000
00000000
00010000
00000000
00000010
00001000
00000100
00000000
00010000
00000000
,
00001000
00000000
00100000
00010000
01000000
00000000
00001000
00000000
00010000
00000000
00000010
00001000
00000100
00000000
00010000
00000000
,
00000000
00000000
00001000
00000000
00010000
00000000
00001000
00000000
00010000
00000000
00000100
00001000
00000010
00000000
00010000
00000000
,
00001000
00000000
01000000
00010000
00100000
00000000
00001000
00000000
00010000
00000000
00000100
00001000
00000010
00000000
00010000
00000000
,
00000000
00000000
00001000
00000000
00100000
00000000
01000000
00000000
10000000
00000000
01000000
00100000
01000000
00000000
00100000
00000000
,
00001000
00000000
00010000
00001000
00010000
00000000
00000100
00000000
00000010
00000000
00000100
00000010
00000100
00000000
00010000
00000000
,
00000000
00000000
00001000
00000000
00100000
00000000
00010000
00000000
10000000
00000000
00100000
10000000
00010000
00000000
01000000
00000000
,
00001000
00000000
00010000
00000100
00001000
00000000
00000100
00000000
00000010
00000000
00000001
00001000
00000100
00000000
00001000
00000000
,
00000010
00000000
00000100
00000000
00000001
00000000
00001000
00000000
00000100
00000000
00010000
00001000
00010000
00000000
00001000
00000000
,
01000000
00000000
00100000
01000000
00100000
00000000
10000000
00000000
00010000
00000000
10000000
00010000
10000000
00000000
01000000
00000000
,
00100000
00000000
01000000
00000000
00010000
00000000
00001000
00000000
00000010
00000000
00000001
00000010
00000001
00000000
00001000
00000000
,
00000010
00000000
00000100
00000010
00000100
00000000
00001000
00000000
00010000
00000000
00100000
01000000
00100000
00000000
10000000
00000000
,
00010000
10000000
01100000
00100000
01000000
00010000
00000000
00010000
,
00000000
01000000
00001000
00010000
00001000
00000100
00000010
00001000
,
00000001
00002001
00000000
00000100
00003200
00000000
00000310
00000100
,
00000010
00000100
00010000
00001000
00000100
00000010
00000100
00001000
,
00010000
00100000
01100000
01000000
00000000
00100000
00000000
01000000
,
00000000
00010000
00000000
10000000
01000000
01000000
00100000
00101000
,
00000000
00010100
00000000
00000110
00000010
00000100
00000010
00000001
,
00001000
00000000
00000010
00000000
00000100
00000000
00000000
00001000
00000000
00000000
00010000
00000000
00100000
00000000
00000000
10000000
,
00000000
00000000
01000000
00000000
00010000
00000000
00000000
00001000
00000000
00000000
00000020
00000000
00000200
00000000
00000000
00000000
,
00000330
00000002
00000023
00000230
,
00002300
00023000
00230000
02300000
,
23000000
32000000
03200000
00320000
,
00032000
00003200
00000320
00000032
,
00002003
00003200
00000000
02000300
,
00000000
03000200
00000000
02000300
,
00000000
03000200
00000000
02000300
,
00000000
03000200
00000000
00000300
,
00000000
00000000
00000000
00000000
00001000
00000000
00100000
00000000
00010000
00000000
00100000
00010000
01000000
00000000
00010000
00000000
,
10000000
00000000
00100000
10000000
01000000
00000000
10000000
00000000
00010000
00000000
00100000
00010000
01000000
00000000
00002000
00000000
,
00000000
00000000
00003100
00000000
00000001
00000000
00000010
00000000
00000001
00000000
00000100
00000001
00000010
00000000
00000001
00000000
,
00001000
00000000
00000100
00001000
00000010
00000000
00001000
00000000
00000001
00000000
00000100
00000001
00000010
00000000
00002000
00000000
,
00000000
00000000
00103000
00000000
00010000
00000000
10000000
00000000
00010000
00000000
01000000
00010000
00100000
00000000
00010000
00000000
,
10000000
00000000
01000000
10000000
00100000
00000000
10000000
00000000
00010000
00000000
01000000
00010000
00100000
00000000
00002000
00000000
,
00000000
00000000
00003010
00000000
00000001
00000000
00001000
00000000
00000001
00000000
00000010
00000001
00000100
00000000
00000001
00000000
,
00001000
00000000
00000100
00001000
00000010
00000000
00001000
00000000
00000001
00000000
00000010
00000001
00000100
00000000
00001000
00000000
,
00010000
00000000
00100000
00000000
01000000
00000000
00010000
00000000
10000000
00000000
01000000
10000000
00100000
00000000
10000000
00000000
,
10000000
00000000
01000000
10000000
00100000
00000000
10000000
00000000
10000000
00000000
01000000
10000000
00100000
00000000
00010000
00000000
,
00001000
00000000
00000100
00000000
00000001
00000000
00001000
00000000
00000100
00000000
00000010
00000001
00000100
00000000
00000001
00000000
,
00000001
00000000
00000010
00000001
00000100
00000000
00000001
00000000
00000001
00000000
00000010
00000001
00000100
00000000
00001000
00000000
,
00010000
00000000
00100000
00000000
10000000
00000000
00010000
00000000
10000000
00000000
01000000
10000000
00100000
00000000
01000000
00000000
,
00100000
00000000
01000000
00010000
00100000
00000000
01000000
00000000
00100000
00000000
01000000
10000000
00100000
00000000
01000000
00000000
,
00001000
00000000
00010000
00000000
00001000
00000000
00010000
00000000
00000100
00000000
00000010
00000001
00000100
00000000
00000010
00000000
,
00000100
00000000
00000010
00001000
00000100
00000000
00000010
00000000
00000100
00000000
00000010
00000001
00000100
00000000
00000010
00000000
,
00010000
00001000
00011000
00011000
00011000
00012000
00000000
00000000
,
00023000
00000000
01030000
00100000
00010000
01000000
00100000
00010000
,
00001000
00010000
00011000
00011000
00011000
00021000
00000000
00000000
,
00032000
00000000
00003100
00000010
00001000
00000100
00000010
00001000
,
00010000
00001000
00011000
00011000
00011000
00012000
00000000
00000000
,
00203000
00000000
01300000
10000000
00100000
00010000
00100000
10000000
,
01000000
00010000
00011000
00011000
00011000
00021000
00000000
00000000
,
00030020
00000000
00000130
00000001
00000010
00001000
00000010
00000001
,
00000100
00001000
00000000
00000000
20010000
00000000
00000000
01000000
,
00000000
31000000
00010000
00001000
00000020
00000000
00000000
00000032
,
00000000
00000103
00000010
00010000
00002000
00000000
00000000
02003000
,
00000000
03100000
01000000
00010000
20000000
00000000
00000000
32000000
,
00000000
03010000
00001000
00000100
00000001
00000010
00001000
00010000
,
01000000
10000000
00100000
10000000
01000000
00010000
00001000
00000010
,
00000001
00000100
00000001
00000010
00001000
00010000
01000000
10000000
,
00100000
00010000
00001000
00000100
00000001
00000010
00001000
00010000
,
01000000
00000000
10000000
00000000
00100000
00000000
01000000
00000000
01010000
00000000
00000000
01010000
00000000
00000000
00011000
00000000
,
00000000
00000000
00010000
00000000
00000100
00000000
00010000
00000000
00001000
00000000
00000000
01000000
00000000
00000000
00000100
00000000
,
02000200
00000000
03000300
00000000
;
