#TITLE:CUTIE CHASER;
#SUBTITLE:;
#ARTIST:CLUB SPICE;
#TITLETRANSLIT:;
#SUBTITLETRANSLIT:;
#ARTISTTRANSLIT:;
#GENRE:;
#CREDIT:;
#MUSIC:CUTIE CHASER.mp3;
#BANNER:CUTIE CHASER.png;
#BACKGROUND:CUTIE CHASER-bg.png;
#CDTITLE:;
#SAMPLESTART:22.866;
#SAMPLELENGTH:13.323;
#SELECTABLE:YES;
#OFFSET:-0.027;
#BPMS:0.000=126.100;
#STOPS:;
#DISPLAYBPM:126.000;
#BGCHANGES:;
#FGCHANGES:;

//--------------- dance-single - HellKiteChaos ----------------
#NOTES:
     dance-single:
     HellKiteChaos:
     Challenge:
     13:
     0,0,0,0,0:
0000
0000
0000
0000
,
0000
0000
0000
0000
1001
0000
0000
1100
,
0000
0011
0000
0000
1100
0101
0000
1010
,
0101
0000
0000
0011
0000
0110
0000
0000
,
1100
0011
0000
0011
1001
0000
0000
1010
,
0000
1100
0000
0000
0101
0011
0000
1000
,
1001
0000
0000
0001
0010
0000
0000
0100
1000
0000
1000
0000
0001
0000
0000
0001
,
0100
0000
0000
0010
1000
0000
0010
0000
1000
0000
0000
1000
0100
0000
0000
0100
,
0010
0000
0100
0000
0010
0000
0000
0010
0001
0000
0000
0001
1000
0000
0001
0000
,
0101
0000
0000
0001
0100
0000
0000
0100
1000
0000
0100
0000
0001
0000
0000
0000
,
1000
0000
0000
1000
0100
0000
0000
0100
0001
0000
0100
0000
1000
0000
0000
0000
,
1000
0000
0000
1000
0010
0000
0000
0010
0001
0000
0010
0000
1000
0000
0000
0000
,
0001
0000
0100
0010
0000
0100
0010
1000
0002
0000
1003
0000
0001
0000
0010
0100
,
0000
0010
0100
1000
0002
0000
0003
0000
1000
0000
0100
0010
0000
0100
0010
0001
,
2000
0000
3001
0000
1000
0000
0010
0100
0000
0010
0100
0001
2000
0000
3000
0000
,
0001
0000
0100
0010
0000
0100
0010
1000
0002
0000
1003
0000
0001
0000
0010
0100
,
0000
0010
0100
1000
0002
0000
0003
0000
1000
0000
0010
0100
0000
0010
0100
0001
,
2000
0000
3001
0000
1000
0000
0100
0010
0000
0100
0010
0001
2000
0000
3001
0000
,
2000
0000
3200
0010
1000
0010
2300
0000
,
3002
0000
0203
0000
0310
1000
0100
0001
,
0100
1000
0020
0000
2030
0000
3001
0000
,
0002
0000
0023
0100
0001
0100
0032
0000
,
2003
0000
3020
0000
0130
0001
0010
1000
,
0010
0001
0200
0000
0310
0000
2000
0100
,
3100
1000
0100
0000
1000
0000
0001
0000
0000
0000
0001
0000
0010
0100
1000
0000
,
0100
0000
1001
0000
0000
0000
1001
0000
0001
0000
0000
0001
0100
0000
0000
0100
,
0010
0000
0100
0000
0010
0000
0000
0010
1000
0000
0000
1000
0001
0000
1000
0000
,
0001
0000
0000
0001
0100
0000
0000
0100
0010
0000
1000
0000
0001
0000
0000
0001
,
0010
0000
0000
0100
1000
0000
0001
0000
1000
0000
0001
0100
0001
0000
1000
0000
,
0100
0000
0000
0010
0001
0000
1000
0001
1000
0000
0010
0000
1000
0000
0000
0001
,
0100
0000
0010
0100
0010
0000
0100
0000
0001
0000
0000
1000
0100
0000
0010
0100
,
0010
0000
0100
0000
1000
0000
0001
0000
1000
0000
0010
0100
0000
0010
0100
0001
,
2000
0000
3001
0000
1000
0000
0100
0010
0000
0100
0010
0001
2000
0000
3000
0000
,
0001
0000
0010
0100
0000
0010
0100
1000
0002
0000
1003
0000
0001
0000
0100
0010
,
0000
0100
0010
1000
0002
0000
0003
0000
1000
0000
0010
0100
0000
0010
0100
0001
,
2000
0000
3001
0000
1000
0000
0100
0010
0000
0100
0010
0001
2000
0000
3000
0000
,
0001
0000
0100
0010
0000
0100
0010
1000
0002
0000
1003
0000
0001
0000
0010
0100
,
0000
0010
0100
1000
0002
0000
1003
0000
0002
0000
0000
0000
0023
0000
0100
0000
,
0001
0100
0032
0000
2003
0000
3020
0000
,
0130
0001
0010
1000
0010
0001
0200
0001
,
0302
1000
1003
0000
2000
0000
3200
0010
,
1000
0010
2300
0000
3002
0000
0203
0000
,
0310
1000
0100
0001
0100
1000
0020
0100
,
0130
0000
0001
0000
0002
0000
0010
0000
0013
0001
0010
0000
0001
0000
1000
0000
,
0000
0000
1000
0000
0100
0010
0001
0000
0011
0000
1001
0000
0000
0000
2002
0000
,
0000
3003
0000
0000
0000
0000
0000
0000
;

//--------------- dance-double - HellKiteChaos ----------------
#NOTES:
     dance-double:
     HellKiteChaos:
     Challenge:
     13:
     0,0,0,0,0:
00000000
00000000
00000000
00000000
,
00000000
00000000
00000000
00000000
00011000
00000000
00000000
00101000
,
00000000
00011000
00000000
00000000
00010100
00001100
00000000
00000011
,
00001001
00000000
00000000
00000101
00000000
00001010
00000000
00000000
,
00010010
00011000
00000000
00110000
10010000
00000000
00000000
10100000
,
00000000
11000000
00000000
00000000
01010000
01001000
00000000
00001000
,
00011000
00000000
00000000
00010000
00000100
00000000
00000000
00000100
00000010
00000000
00000001
00000000
00001000
00000000
00000000
00000010
,
00000100
00000000
00000000
00000100
00000001
00000000
00000010
00000000
00000100
00000000
00000000
00000010
00000100
00000000
00000000
00000100
,
00001000
00000000
00000100
00000000
00010000
00000000
00000000
00001000
01000000
00000000
00000000
00100000
10000000
00000000
00010000
00000000
,
01010000
00000000
00000000
00010000
01000000
00000000
00000000
01000000
10000000
00000000
01000000
00000000
00010000
00000000
00000000
00010000
,
00000010
00000000
00000000
00000100
00000001
00000000
00001000
00000000
00000001
00000000
00000000
00000010
00001000
00000000
00000000
00001000
,
00010000
00000000
01000000
00000000
00100000
00000000
00000000
00010000
10000000
00000000
00000000
00000000
00010000
00000000
00000000
00000000
,
10000000
00000000
00010000
01000000
00000000
00100000
10000000
00100000
10000000
00000000
00010000
00000000
10000000
00000000
00010000
00100000
,
00000000
01000000
00100000
00010000
20000000
00000000
30000000
00000000
00100000
00000000
01000000
00001000
00000000
01000000
00001000
01000000
,
00001000
00000000
00010000
00000000
00001000
00000000
00010000
00000100
00000000
00001000
00000100
00001000
00000002
00000000
00000003
00000000
,
00000100
00000000
00000010
00001000
00000000
00000010
00001000
00000010
00001000
00000000
00000100
00000000
00010000
00000000
00001000
00010000
,
00000000
00001000
00010000
00001000
02000000
00000000
03000000
00000000
00100000
00000000
01000000
00100000
00000000
01000000
00100000
01000000
,
00100000
00000000
10000000
00000000
00010000
00000000
00100000
01000000
00000000
00100000
01000000
10000000
00020000
00000000
00000000
00000000
,
02030000
00000000
03020000
10000000
01000000
10000000
02030000
00000000
,
03020000
00000000
00030200
00000000
00000301
00000010
00000100
00000010
,
00000001
00000100
00002000
00000000
00003200
00000000
00000301
00000000
,
00002000
00000000
00003002
00000100
00001000
00000100
00002003
00000000
,
02003000
00000000
23000000
00000000
31000000
10000000
00100000
10000000
,
01000000
00010000
02000000
00000000
23000000
00000000
30020000
00000000
,
01030000
00000000
00000000
01100000
00000000
01010000
00000000
00000000
,
01001000
00000000
00011000
00000000
00000000
00000000
00011000
00000000
00011000
00000000
00000000
00001000
00100000
00000000
00000000
00100000
,
01000000
00000000
10000000
00000000
00010000
00000000
00000000
01000000
00100000
00000000
00000000
00100000
10000000
00000000
01000000
00000000
,
00100000
00000000
00000000
01000000
00100000
00000000
00000000
00100000
00010000
00000000
00100000
00000000
00001000
00000000
00000000
00010000
,
00000010
00000000
00000000
00000100
00000001
00000000
00001000
00000000
00001010
00000000
00000000
00001000
00000010
00000000
00000000
00000010
,
00000001
00000000
00000010
00000000
00001000
00000000
00000000
00010000
00100000
00000000
00000000
00100000
10000000
00000000
00010000
00000000
,
10000000
00000000
00000000
01000000
00010000
00000000
00000000
00010000
00001000
00000000
00000010
00000000
00000100
00000000
00000000
00001000
,
00000001
00000000
00000000
00000000
00001001
00000000
00001000
00000000
00000001
00000000
00001000
00000010
00000000
00000100
00000001
00000100
,
00000001
00000000
00001000
00000000
00000001
00000000
00001000
00000100
00000000
00000010
00000100
00001000
00000002
00000000
00000003
00000000
,
00000100
00000000
00000010
00010000
00000000
00000010
00010000
00000010
00010000
00000000
00001000
00000000
00010000
00000000
00001000
00100000
,
00000000
00010000
00100000
00010000
20000000
00000000
30000000
00000000
00100000
00000000
01000000
00010000
00000000
01000000
00010000
01000000
,
00010000
00000000
00100000
00000000
00001000
00000000
00010000
00001000
00000000
00010000
00001000
00010000
00000020
00000000
00000030
00000000
,
00000100
00000000
00000010
00000100
00000000
00000010
00000100
00000010
00000100
00000000
00000001
00000000
00001000
00000000
00000100
00000010
,
00000000
00000100
00000010
00000001
00002000
00000000
00000000
00000000
00003020
00000000
00000000
00000000
00002030
00000000
00000001
00000000
,
00000010
00000001
00003020
00000000
00002030
00000000
00203000
00000000
,
10300000
01000000
00100000
01000000
10000000
00100000
00020000
00000000
,
00230000
00000000
10300000
00000000
00020000
00000000
20030000
00100000
,
00010000
00100000
30020000
00000000
00030020
00000000
00000032
00000000
,
00000013
00000001
00000100
00000001
00000010
00001000
00000020
00000000
,
00000032
00000000
00002003
00000000
00003010
00000000
00000000
00000110
,
00000000
00001010
00000000
00000000
00010010
00011000
00000000
20020000
,
00000000
30030000
00000000
00000000
00000000
00000000
00000000
00000000
;
