#TITLE:CANDY;
#SUBTITLE:;
#ARTIST:Luv UNLIMITED;
#TITLETRANSLIT:;
#SUBTITLETRANSLIT:;
#ARTISTTRANSLIT:;
#GENRE:Dance Dance Revolution 6th Mix -Max-,Dancing Stage Euromix 2;
#CREDIT:;
#MUSIC:CANDY.mp3;
#BANNER:CANDY.png;
#BACKGROUND:CANDY-bg.png;
#CDTITLE:CANDY-bg.png;
#SAMPLESTART:0.000;
#SAMPLELENGTH:0.000;
#SELECTABLE:YES;
#OFFSET:-1.333;
#BPMS:0.000=192.000;
#STOPS:;
#DISPLAYBPM:192.000;
#BGCHANGES:;
#FGCHANGES:;

//--------------- dance-single - HellKiteChaos ----------------
#NOTES:
     dance-single:
     HellKiteChaos:
     Challenge:
     14:
     0,0,0,0,0:
0000
0000
0000
0000
,
0000
0000
0000
0000
,
0000
0000
0000
0000
,
0000
0000
0000
0000
,
2000
0000
3200
0000
0301
0100
1000
0020
,
0000
0230
0000
0310
1000
0100
0001
0100
,
2000
0000
3002
0000
0103
0010
0100
0001
,
1000
0100
0010
0001
1000
0001
1001
0000
,
1000
0100
0010
0002
0000
1003
0001
1000
,
0001
0010
0100
2000
0000
3001
0100
0010
,
1000
0000
2100
0000
3010
1000
0100
1000
,
0010
0001
0010
1000
0001
0000
1001
0000
,
1100
0000
0012
0000
0103
0001
0010
0001
,
0100
1000
0100
0001
1000
0000
1001
0000
,
0101
0000
2010
0000
3010
0001
0010
1000
,
0100
0010
0001
0100
0010
0000
1001
0000
,
0110
0000
1001
0000
1000
0100
0001
0100
,
1000
0010
0100
0001
0100
0010
1000
0001
,
2001
0000
3001
0000
0100
0010
1000
0002
,
0000
0103
0010
0100
0001
0010
0100
1000
,
0002
0000
2003
0000
3100
0010
0100
2000
,
0000
3001
0100
0010
1000
0001
1000
0100
,
0020
0000
0032
0000
1003
0010
1000
0002
,
0000
0013
0100
1000
0001
0100
0010
1000
,
0001
0000
1001
0000
1000
0010
1000
0001
,
0000
0100
0010
0220
0000
0000
0330
0000
,
1001
0000
1100
0000
0001
0100
1000
0000
,
1001
0000
0101
0000
1000
0100
0001
0000
,
1001
0000
0011
0000
0001
0010
1000
0020
,
0000
0031
1000
0010
0100
0010
1001
0000
,
0010
1000
0100
1000
0010
1000
0100
0010
,
0001
0010
0001
0100
0001
0010
0100
1000
,
0002
0000
0203
0000
0320
0000
1030
0002
,
0000
0103
0010
0100
0010
1000
0001
1000
,
1001
0000
0011
0000
1000
0010
0001
0000
,
1001
0000
1010
0000
0001
0010
1000
0000
,
1001
0000
1100
0000
1000
0100
0001
0200
,
0000
1300
0001
0100
0010
0100
1001
0000
,
0100
0001
0010
0001
0100
0001
0010
0100
,
1000
0100
1000
0010
1000
0100
0010
0001
,
2000
0000
0000
0000
3020
0000
0000
0000
0130
0000
0000
0000
0010
0100
0020
0000
,
0000
1000
2030
0000
3200
0000
0320
0000
,
0031
0100
0100
0010
0100
0100
1000
0100
,
0100
0010
0100
0100
0001
0000
1001
0000
,
1000
0100
0100
0010
0100
0100
0001
0100
,
0100
0000
0010
0000
0100
0000
0100
0000
1000
0000
0001
0000
0100
0001
0100
0001
,
0100
0010
0010
1000
0010
0010
0001
0010
,
0010
0100
0010
0010
1000
0100
0010
0001
,
1000
0100
0100
0001
0100
0100
1000
0000
,
2100
3002
0203
0310
,
0110
0000
0102
0000
0013
0001
0100
0000
,
0110
0000
2010
0000
3100
1000
0010
0000
,
0100
0001
0100
0000
0010
1000
0010
2000
,
0000
3001
0010
0100
1000
0001
1001
0000
,
0100
0001
0010
0001
0100
0001
0010
0100
,
1000
0100
1000
0010
1000
0100
0010
0001
,
2000
0000
3020
0000
0230
0000
0301
2000
,
0000
3010
0100
0010
0100
0001
1000
0001
,
1001
0000
1100
0000
0001
0100
1000
0000
,
1001
0000
0101
0000
1000
0100
0001
0000
,
1001
0000
0011
0000
0001
0010
1000
0020
,
0000
0031
1000
0010
0100
0010
1001
0000
,
0010
1000
0100
1000
0010
1000
0100
0010
,
0001
0010
0001
0100
0001
0010
0100
1000
,
0002
0000
0000
0000
0203
0000
0000
0000
0310
0000
0000
0000
0100
0010
0200
0000
,
0000
0001
0302
0000
0023
0000
0230
0000
,
1300
0100
0100
1000
0010
0010
0100
0001
,
1000
0001
0001
0100
0010
0010
1000
0100
,
0010
0001
0010
0000
0100
0000
1000
0100
1000
0000
0001
0000
1000
0000
0001
0000
,
2002
0000
3003
0000
;

//--------------- dance-double - HellKiteChaos ----------------
#NOTES:
     dance-double:
     HellKiteChaos:
     Challenge:
     14:
     0,0,0,0,0:
00000000
00000000
00000000
00000000
,
00000000
00000000
00000000
00000000
,
00000000
00000000
00000000
00000000
,
00000000
00000000
00000000
00000000
,
00020000
00000000
00032000
00000000
00003100
00000001
00000010
00002000
,
00000000
00023000
00000000
01030000
10000000
00100000
00010000
00001000
,
00000200
00000000
00000310
00000100
00000010
00001000
00000001
00000010
,
00001000
00010000
01000000
10000000
00100000
01000000
10010000
00000000
,
10000000
01000000
00010000
00002000
00000000
00013000
00001000
00001000
,
00010000
01000000
10000000
00200000
00000000
01300000
00100000
01000000
,
10010000
00000000
21000000
00000000
31000000
00010000
00001000
00000010
,
00000100
00000010
00000001
00001000
00000001
00000000
00001001
00000000
,
00000101
00000000
00001010
00000000
00000010
00000100
00001000
00010000
,
00100000
01000000
00100000
01000000
00010000
00000000
10010000
00000000
,
11000000
00000000
00110000
00000000
00100000
00010000
01000000
10000000
,
01000000
00010000
00001000
00000010
00000001
00000000
00000110
00000000
,
00001001
00000000
00001100
00000000
00000100
00000010
00000100
00010000
,
00001000
00000100
00000010
00000001
00000010
00001000
00010000
01000000
,
01100000
00000000
10010000
00000000
01000000
00100000
10000000
00020000
,
00000000
01030000
00100000
01000000
01010000
00000000
01001000
00000000
,
00011000
00000000
00010100
00000000
00000100
00000010
00000100
00002000
,
00000000
00003001
00000010
00000100
00001000
00000001
00001001
00000000
,
00001100
00000000
00010100
00000000
00001000
00100000
00001000
00010000
,
00001000
01000000
00010000
00100000
00001000
01000000
00100000
10000000
,
11000000
01010000
01001000
00011000
,
00010100
00000000
00001100
00000100
00001000
00000100
00010000
00001000
,
00010000
00000000
00011000
00000000
00001000
00010000
01000000
00010000
,
00001000
00000000
00011000
00000000
00010000
00001000
00000100
00001000
,
00010000
00000000
00011000
00000000
00001000
00010000
00100000
00010000
,
00001000
00000010
00001000
00010000
01000000
00100000
10010000
00000000
,
10000000
00100000
10000000
00100000
01000000
00010000
01000000
00010000
,
00100000
00001000
00100000
00001000
00010000
00000100
00010000
00000100
,
00000020
00000000
00000032
00000000
00000203
00000000
00000300
00000020
,
00000000
00000030
00000100
00000010
00000100
00001000
00010000
00100000
,
01100000
00000000
10010000
00000000
10000000
01000000
00010000
00000000
,
00011000
00000000
00011000
00000000
00001000
00000100
00000001
00000000
,
00001001
00000110
00000101
00001010
,
00000010
00010000
00001000
00010000
00001000
01000000
00100000
10000000
,
01000000
00100000
01000000
00100000
00001000
00010000
00001000
00010000
,
00000010
00000100
00000010
00000100
00000001
00001000
00000001
00001000
,
00000020
00000000
00000000
00000000
00000230
00000000
00000000
00000000
00000301
00000000
00000000
00000000
00001000
00000001
00002000
00000000
,
00000000
00000000
00000000
00003000
,
00000100
00000010
00000010
00000001
00001000
00001000
00000010
00010000
,
00010000
00001000
00100000
00001000
01000000
00000000
01010000
00000000
,
10000000
00100000
00100000
01000000
00010000
00010000
00100000
00001000
,
00001000
00000000
00010000
00000000
00000100
00000000
00001000
00000000
00001100
00000000
00000000
00000000
00000100
00000010
00000100
00000010
,
00000001
00000010
00000100
00000010
00000001
00000100
00001000
00010000
,
01000000
00100000
01000000
00100000
10000000
00010000
10000000
00010000
,
10000000
01000000
00010000
00001000
00000010
00000001
00000100
00001000
,
00000200
00000302
00000023
00000230
,
00000310
00000000
00000110
00000000
00000010
00000001
00000100
00000010
,
00000000
00000100
00000010
00010000
00001000
00000000
00011000
00000000
,
00001000
00000000
00110000
00000000
01000000
10000000
00100000
01000000
,
00000000
00100000
01000000
00010000
10000000
00010000
10010000
00000000
,
00010000
01000000
00100000
01000000
00001000
01000000
00010000
01000000
,
00001000
00010000
00000010
00000100
00000010
00010000
00000010
00000100
,
00000002
00000000
00000023
00000000
00002030
00000000
00003010
00000001
,
00000000
00001000
00000100
00000000
00010000
00001000
00010000
01000000
,
00010000
00000000
00001000
00010000
00000100
00000000
00010000
00001000
,
00100000
00001000
00010000
01000000
00010000
00001000
00010000
00000000
,
00001000
00000100
00000010
00000000
00001000
00000100
00000010
00000001
,
00000000
00000010
00001000
00000010
00000001
00000100
00001000
00000000
,
00010000
00001000
00010000
00100000
10000000
00100000
10000000
01000000
,
00010000
01000000
00010000
00001000
00000010
00001000
00000010
00000001
,
00000200
00000000
00000000
00000000
00000320
00000000
00000000
00000000
00001030
00000000
00000000
00000000
00000010
00000100
00000020
00000000
,
00000000
00000000
00000000
00000030
,
00000100
00000010
00000100
00000100
00000001
00000001
00000010
00001000
,
00010000
01000000
01000000
00100000
00010000
00010000
01000000
00100000
,
10000000
00010000
10000000
00010000
01000000
00100000
01000000
00100000
,
20020000
00000000
30030000
00000000
;
