#TITLE:CAN'T STOP FALLIN' IN LOVE (SPEED MIX);
#SUBTITLE:;
#ARTIST:NAOKI;
#TITLETRANSLIT:;
#SUBTITLETRANSLIT:;
#ARTISTTRANSLIT:;
#GENRE:Dance Dance Revolution 5th Mix,Dancing Stage Euromix 2;
#CREDIT:;
#MUSIC:CAN'T STOP FALLIN' IN LOVE (SPEED MIX).mp3;
#BANNER:CAN'T STOP FALLIN' IN LOVE (SPEED MIX).png;
#BACKGROUND:CAN'T STOP FALLIN' IN LOVE (SPEED MIX)-bg.png;
#CDTITLE:;
#SAMPLESTART:33.750;
#SAMPLELENGTH:12.176;
#SELECTABLE:YES;
#OFFSET:-0.044;
#BPMS:0.000=170.000;
#STOPS:;
#DISPLAYBPM:170.000;
#BGCHANGES:;
#FGCHANGES:;

//--------------- dance-single - HellKiteChaos ----------------
#NOTES:
     dance-single:
     HellKiteChaos:
     Challenge:
     18:
     0,0,0,0,0:
0000
0000
0000
0000
,
0000
0000
0000
0000
,
0000
0000
2001
0000
3100
0001
0100
2000
,
0000
3002
0000
1003
0001
0100
1000
0100
,
0001
1000
1010
0000
1000
0001
0100
0002
,
0000
0013
0000
0100
2000
0010
3010
0100
,
0001
0010
1000
0010
0001
0100
1000
0100
,
0001
0000
0001
0000
1000
0000
1000
0000
0001
0100
0010
1000
0100
0010
0100
0010
,
0001
0000
0010
0001
0010
0000
0100
1000
0100
0000
1000
0010
1000
0000
0100
0010
,
0100
0000
1000
0010
1000
0000
0100
1000
0100
0000
0010
0001
0010
0000
0100
0010
,
0100
0000
1000
0100
1000
0000
0010
1000
0010
0000
0100
0010
0100
0000
0010
1000
,
0020
2030
0000
3200
0000
0320
0000
0031
,
0000
0000
0010
0001
0010
0000
0100
1000
0100
0000
1000
0010
1000
0000
0100
0010
,
0100
0000
1000
0010
1000
0000
0100
1000
0100
0000
0010
0001
0010
0000
0001
0100
,
0001
0000
0100
0010
0100
0000
0010
1000
0010
0000
0100
0010
0100
0000
0010
1000
,
0020
0000
2030
0000
0000
0000
3100
0000
0010
0001
1000
0100
0010
0001
1000
0100
,
0010
0000
0001
1000
0100
0000
0010
0001
1000
0000
1000
0000
0001
0000
0100
0010
,
1000
0000
0001
0100
0010
0000
1000
0001
0100
0000
0010
1000
0001
0000
0001
0000
,
0100
0001
0100
0001
0100
0000
0001
0000
0010
0100
0010
0100
0010
0000
0100
0000
,
1000
0010
0100
0010
0100
0001
0100
0001
0010
0100
0010
0100
1000
0010
0100
0001
,
1000
0000
1000
0001
0010
0000
0100
1000
0001
0000
0001
0000
1000
0000
0010
0100
,
0001
0000
1000
0010
0100
0000
0001
1000
0010
0000
0100
0001
1000
0000
1000
0000
,
0001
0010
1000
0010
0001
0010
0100
1000
,
1100
0101
0000
1010
0000
0101
0000
1100
,
1000
0100
1000
0100
1000
0000
0001
0000
0100
0010
0100
0010
0100
0000
0010
0000
,
1000
0010
1000
0010
0100
0001
0100
0001
1000
0001
1000
0001
1000
0100
1000
0100
,
0010
0001
0010
0001
0010
0000
0100
0000
1000
0100
1000
0100
1000
0000
0010
0000
,
0100
0001
0100
0001
1000
0010
1000
0010
0100
0001
0100
0001
1000
0001
1000
0001
,
1000
0000
0001
0100
0001
0000
1000
0100
1000
0000
0001
0100
0001
0000
1000
0100
,
1000
0000
0001
0010
0001
0000
1000
0010
1000
0000
0001
0010
0001
0000
1000
0000
,
0010
1000
0001
0100
0010
1000
0010
1000
0001
0010
0001
0010
0100
1000
0100
1000
,
0010
1000
0100
1000
0010
1000
0100
1000
0001
0010
0001
0100
0001
0010
0001
0100
,
0001
0000
1000
0100
0001
0000
0100
0010
0100
0000
1000
0000
0010
0000
1000
0000
,
0001
0000
1000
0010
0001
0000
0010
0100
0010
0000
1000
0000
0001
0000
0010
0000
,
0100
0000
1000
0010
0001
0000
0010
0100
0010
0000
1000
0000
0001
0000
1000
0000
,
0010
0000
1000
0100
0001
0000
0100
0010
0100
0000
0010
0000
0100
0000
1000
0000
,
0001
0000
1000
0010
1000
0000
0001
0100
0001
0000
1000
0100
1000
0000
0001
0010
,
0001
0000
1000
0100
1000
0000
0010
0100
0010
0000
1000
0001
1000
0000
0001
0000
,
0100
0001
0100
0001
0100
0001
0100
0001
1000
0010
1000
0010
1000
0010
1000
0010
,
1000
0100
1000
0100
0010
0001
0010
0001
1000
0100
0001
0100
1000
0100
0001
0100
,
1000
0100
1000
0100
1000
0000
0001
0000
0100
0010
0100
0010
0100
0000
0010
0000
,
1000
0010
1000
0010
0100
0001
0100
0001
1000
0001
1000
0001
1000
0100
1000
0100
,
0010
0001
0010
0001
0010
0000
0100
0000
1000
0100
1000
0100
1000
0000
0100
0000
,
0010
0001
0010
0001
0100
0010
0100
0010
1000
0010
1000
0001
0100
0010
1000
0001
,
0100
0000
0001
0100
0001
0000
1000
0100
1000
0000
0001
0100
0001
0000
1000
0100
,
1000
0000
0001
0010
0001
0000
1000
0010
1000
0000
0001
0010
0001
0000
1000
0000
,
0010
1000
0001
0100
0010
1000
0010
1000
0001
0010
0001
0010
0100
1000
0100
1000
,
0010
1000
0100
1000
0010
1000
0100
1000
0001
0010
0001
0100
0001
0010
0001
0100
,
0001
0010
0001
0010
0001
0000
1000
0000
0010
0100
0010
0100
0010
0000
0100
0000
,
0001
0100
0001
0100
0010
1000
0010
1000
0001
1000
0001
1000
0001
0010
0001
0010
,
0100
1000
0100
1000
0100
0000
0010
0000
0001
0010
0001
0010
0001
0000
0100
0000
,
0010
1000
0010
1000
0010
0100
0010
0100
0001
1000
0010
0100
0001
1000
0010
0100
,
0001
0000
1000
0010
1000
0000
0001
0010
0001
0000
1000
0010
1000
0000
0001
0010
,
0001
0000
1000
0100
1000
0000
0001
0100
0001
0000
1000
0100
1000
0000
0001
0000
,
0100
0001
1000
0010
0100
0001
0100
0001
1000
0100
1000
0100
0010
0001
1000
0010
,
0100
0001
1000
0010
0100
0010
0100
0001
0010
0100
0010
0100
1000
0001
0100
0010
,
1000
0000
0001
0100
0010
0000
1000
0100
0010
0000
0001
0100
0010
0000
1000
0100
,
0010
0000
0001
0100
0010
0000
1000
0100
0010
0000
0001
0000
0100
0000
0001
0000
,
1000
0000
0010
1000
0100
0000
0010
0001
0100
0000
0010
1000
0100
0000
0010
0001
,
0100
0000
0010
1000
0100
0000
0100
0000
0010
0001
0010
0001
1000
0100
1000
0100
,
1000
0000
0010
0100
0001
0000
0010
0100
1000
0000
0010
0100
0001
0000
0010
0100
,
1000
0000
0010
0100
0001
0000
0010
0100
1000
0000
0010
0100
0001
0000
1000
0000
,
0010
0100
0010
0100
0001
0100
0001
0100
0010
1000
0010
1000
0001
0010
0001
0010
,
0100
1000
0001
0100
0010
1000
0100
0010
0001
0000
1100
0000
0001
0000
0101
0000
,
2200
3300
0000
0000
;

//--------------- dance-double - HellKiteChaos ----------------
#NOTES:
     dance-double:
     HellKiteChaos:
     Challenge:
     18:
     0,0,0,0,0:
00000000
00000000
00000000
00000000
,
00000000
00000000
00000000
00000000
,
00000000
00000000
00021000
00000000
00031000
00100000
01000000
00020000
,
00000000
00032000
00000000
00013000
00000010
00000100
00000010
00000100
,
00000001
00000100
00001000
00000100
00000001
00000100
00001000
00000100
,
00000001
00000010
00001000
00010000
01000000
10000000
00100000
01000000
,
00010000
00100000
10000000
00100000
00010000
00100000
10000000
00100000
,
00010000
00000000
01000000
00000000
00010000
00000000
10000000
00000000
00010000
01000000
00010000
01000000
00100000
10000000
00100000
10000000
,
00010000
00000000
01000000
00010000
01000000
00000000
00100000
01000000
00100000
00000000
10000000
01000000
10000000
00000000
00010000
00100000
,
00010000
00000000
01000000
00001000
01000000
00000000
00001000
00010000
00001000
00000000
00010000
00000010
00010000
00000000
00000100
00001000
,
00000100
00000000
00000010
00000001
00000010
00000000
00000001
00000100
00000001
00000000
00010000
00000010
00010000
00000000
00000100
00001000
,
00000100
00000020
00000000
00000032
00000000
00000203
00000000
00000310
,
00000100
00000000
00000010
00001000
00000010
00000000
00010000
00001000
00010000
00000000
00001000
01000000
00001000
00000000
01000000
00100000
,
01000000
00000000
00010000
10000000
00010000
00000000
00100000
01000000
00100000
00000000
01000000
10000000
01000000
00000000
00100000
00001000
,
00100000
00000000
00001000
00010000
00001000
00000000
00010000
00000010
00010000
00000000
00000010
00000100
00000010
00000000
00001000
00000001
,
00001000
00000000
00000200
00000000
00000000
00000000
00000310
00000000
00000001
00000100
00001000
00010000
00001000
00010000
00100000
10000000
,
01000000
00000000
00100000
00010000
10000000
00000000
00100000
10000000
00010000
00000000
01000000
00000000
00001000
00000000
00010000
00000100
,
00010000
00000000
00001000
00100000
00001000
00000000
00010000
00001000
00010000
00000000
00000100
00000000
00000010
00000000
00000001
00000000
,
00000100
00000001
00000100
00000001
00000100
00000000
00000010
00000000
00010000
00001000
00010000
00001000
00010000
00000000
01000000
00000000
,
10000000
00010000
10000000
00010000
10000000
01000000
10000000
01000000
00100000
00001000
00100000
00001000
00010000
00001000
00010000
00000010
,
00000100
00000000
00000001
00001000
00000100
00000000
00001000
00000001
00000100
00000000
00000010
00000000
00000100
00000000
00000010
00001000
,
00000010
00001000
00000100
00000000
00010000
00001000
00010000
00000000
00001000
00000000
01000000
00000000
00100000
00000000
10000000
00000000
,
00010000
00100000
01000000
10000000
00100000
01000000
00001000
00010000
00000100
00000010
00000001
00000100
00001000
00010000
00100000
10000000
,
01000000
11000000
00000000
00110000
00000000
01001000
00000000
01100000
,
01000000
00100000
01000000
00100000
01000000
00000000
00100000
00000000
01000000
00001000
01000000
00001000
01000000
00000000
00001000
00000000
,
00010000
00000100
00001000
00000010
00010000
00000100
00001000
00000010
00000100
00000001
00001000
00000010
00000100
00000001
00000010
00000100
,
00001000
00000100
00001000
00000100
00001000
00000000
00000100
00000000
00010000
00001000
00010000
00001000
00100000
00000000
01000000
00000000
,
10000000
00100000
01000000
00010000
10000000
00100000
01000000
00010000
00100000
00001000
01000000
00010000
00100000
00001000
01000000
00100000
,
10000000
00000000
00100000
10000000
00100000
00000000
01000000
00010000
01000000
00000000
00001000
00010000
00001000
00000000
00000100
00000010
,
00000100
00000000
00000001
00001000
00000001
00000000
00000100
00000010
00001000
00000001
00001000
00000001
00001000
00000000
00000100
00000000
,
00000010
00000001
00001000
00000010
00001000
00000100
00010000
00001000
00100000
00010000
01000000
00100000
10000000
01000000
00010000
00001000
,
00000010
00000001
00000100
00000001
00000100
00000010
00001000
00000010
00010000
00001000
00000100
00000010
00000001
00000010
00000100
00000001
,
00001000
00000000
00000100
00010000
00001000
00000000
01000000
00100000
10000000
00000000
01000000
00000000
00100000
00000000
01000000
00000000
,
00100000
00010000
01000000
00001000
00010000
00010100
00000100
00000110
,
00000010
00000000
00000001
00000010
00000100
00000000
00010000
00000010
00000100
00000000
00000001
00000000
00000010
00000000
00001000
00000000
,
00010000
00000000
00001000
00000000
00010000
00000000
00001000
00100000
00010000
00000000
01000000
00000000
00100000
00000000
10000000
00000000
,
01000000
00100000
00001000
00010000
00001000
00000100
00000010
00001000
,
00010000
01000000
00100000
00010000
01000000
00100000
10000000
01000000
,
00100000
00010000
00100000
00010000
00100000
00010000
00100000
00010000
01000000
00001000
01000000
00001000
01000000
00001000
01000000
00001000
,
00010000
00000010
00000100
00000001
00000010
00000100
00001000
00000100
00000001
00000100
00001000
00000100
00000001
00000100
00001000
00000100
,
00000010
00000100
00000010
00000100
00000010
00000000
00000001
00000000
00001000
00000001
00001000
00000001
00001000
00000000
00000010
00000000
,
00000100
00000010
00010000
00000010
00010000
00000100
00001000
00000100
00010000
00001000
00010000
00001000
01000000
00100000
10000000
01000000
,
00100000
00010000
00100000
00010000
00100000
00000000
01000000
00000000
10000000
00010000
10000000
00010000
10000000
00000000
00100000
00000000
,
01000000
00001000
01000000
00001000
00100000
00010000
00100000
00010000
01000000
00100000
00010000
00001000
00000100
00000010
00000001
00000010
,
00001000
00000000
00000010
00000100
00000001
00000000
00000010
00000100
00001000
00000000
00000010
00000100
00001000
00000000
00000100
00000010
,
00001000
00000000
00000100
00000010
00001000
00000000
00000010
00001000
00010000
00000000
01000000
00100000
10000000
01000000
00100000
00010000
,
10000000
00100000
00010000
00100000
10000000
00100000
00010000
00001000
00000100
00000001
00000100
00001000
00000100
00000001
00000100
00001000
,
00010000
01000000
10000000
01000000
00010000
01000000
10000000
01000000
00010000
00001000
00000010
00000001
00000010
00001000
00000010
00000001
,
00001000
00000001
00001000
00000001
00000100
00000000
00000010
00000000
00010000
00001000
00010000
00001000
00100000
00000000
01000000
00000000
,
10000000
00100000
01000000
00010000
01000000
00010000
00100000
00010000
00100000
01000000
10000000
00100000
01000000
00001000
00010000
00001000
,
00010000
00000100
00010000
00000100
00010000
00000000
00000010
00000000
00000100
00000001
00000100
00000001
00001000
00000000
00000100
00000000
,
00010000
00001000
00100000
00010000
01000000
00001000
00100000
00010000
01000000
00001000
00010000
00000100
00000010
00000100
00000010
00000001
,
00001000
00000000
00000010
00000000
00000100
00000001
00000010
00000000
00000100
00000000
00000010
00000000
00000100
00001000
00000010
00000000
,
00010000
00001000
00100000
00010000
01000000
00100000
10000000
01000000
,
00100000
00010000
01000000
00001000
00010000
00000010
00001000
00000010
00000100
00000001
00000010
00000100
00010000
00001000
00100000
00001000
,
00100000
01000000
10000000
00010000
10000000
00100000
00010000
00001000
00000100
00000010
00000100
00000010
00001000
00000001
00000010
00000100
,
00000010
00000000
00000100
00001000
00000100
00000000
00000010
00000001
00000010
00000000
00000001
00000100
00000001
00000000
00010000
00000010
,
00010000
00000000
00001000
00010000
00001000
00000000
00100000
00010000
00100000
00000000
01000000
10000000
01000000
00000000
10000000
00100000
,
10000000
00000000
00100000
00010000
00100000
00000000
01000000
00100000
01000000
00000000
00001000
01000000
00001000
00000000
00100000
00010000
,
00100000
00000000
00001000
00010000
00001000
00000000
00000100
00000010
00000100
00000001
00001000
00000001
00000100
00000000
00000010
00000000
,
00001000
00000000
00000100
00001000
00000100
00000000
00010000
00001000
00010000
00000000
00001000
01000000
00001000
00000000
01000000
00100000
,
01000000
00000000
00010000
00100000
00010000
00000000
01000000
00001000
01000000
00000000
00100000
10000000
00100000
00000000
01000000
00100000
,
01000000
00000000
00001000
00010000
00001000
00000000
00010000
00000100
00010000
00000000
00000010
00000100
00000010
00000000
00000100
00000001
,
00001000
00000100
00000010
00000001
00000100
00001000
00010000
00100000
10000000
00000000
11000000
00000000
01000000
00000000
00110000
00000000
,
00022000
00033000
00000000
00000000
;
