#TITLE:BREAK DOWN!;
#SUBTITLE:;
#ARTIST:Be For U;
#TITLETRANSLIT:;
#SUBTITLETRANSLIT:;
#ARTISTTRANSLIT:;
#GENRE:;
#CREDIT:;
#MUSIC:BREAK DOWN!.mp3;
#BANNER:BREAK DOWN!.png;
#BACKGROUND:BREAK DOWN!-bg.png;
#CDTITLE:;
#SAMPLESTART:48.990;
#SAMPLELENGTH:11.368;
#SELECTABLE:YES;
#OFFSET:-0.038;
#BPMS:0.000=190.000;
#STOPS:;
#DISPLAYBPM:190.000;
#BGCHANGES:;
#FGCHANGES:;

//--------------- dance-single - HellKiteChaos ----------------
#NOTES:
     dance-single:
     HellKiteChaos:
     Challenge:
     12:
     0,0,0,0,0:
0000
0000
0000
0000
,
0000
0000
0000
0000
,
0000
0000
0000
0000
,
0010
0000
0010
0000
,
0010
0100
0010
1001
,
1000
0100
0000
1000
0010
0000
1100
0000
,
0001
0100
0000
0001
0010
0000
0101
0000
,
1000
0010
0000
0100
0001
0000
1001
0000
,
0010
0001
0000
1000
0100
1000
0100
1000
,
0001
0010
0000
0001
0100
0000
1001
0000
,
1000
0010
0000
1000
0100
0000
1001
0000
,
0010
0100
0000
0100
0010
0000
1000
0000
,
0100
0010
0000
0010
0100
0000
1000
0000
,
0001
0100
0001
0000
1000
0100
1000
0000
,
0001
0010
0100
1000
0002
0000
1003
0000
,
1000
0000
0100
0000
0100
0010
0001
0000
,
0001
0000
0100
0000
0100
0010
1000
0001
,
1000
0000
0100
0000
0010
0001
1000
0000
,
0001
0000
0100
0000
0010
0100
0010
0100
,
0001
0000
1000
0000
0100
0010
0100
0000
,
1000
0000
0001
0000
0010
0001
1000
0010
,
0100
0000
0001
0100
0000
0010
1000
0000
,
0001
0010
0001
0010
0100
1000
0100
1000
,
0001
1000
0001
0000
0100
0001
0100
0000
,
0010
0000
1000
0000
0001
0100
0010
1000
,
0001
0010
0001
0000
1000
0100
1000
0000
,
0001
0000
0010
0000
0100
1000
0100
0000
,
1000
0100
0001
0000
0001
0100
1000
0000
,
0001
0010
1000
0000
1000
0010
0001
0000
,
1000
0000
0010
0100
0000
0010
0100
0001
,
1000
0000
0100
0010
0100
0000
0110
0000
,
1000
0100
1000
0100
0000
0000
0011
0000
,
0001
1000
0010
1000
,
0001
0000
0001
0010
0000
0010
0100
0000
,
1000
0000
1000
0010
0000
0010
0100
0000
,
0001
1000
0001
1000
0000
0000
0001
0000
,
1000
0100
1000
0001
,
0010
0000
0010
0000
,
0000
0100
0010
0100
0010
0000
1001
0000
,
0001
0100
0001
0000
0001
0100
0001
0000
,
1000
0010
0100
0001
,
1000
0100
1000
0000
1000
0100
1000
0000
,
0001
0010
0100
1000
,
0010
1000
0010
0000
0010
1000
0010
0000
,
1000
0010
0100
0001
,
0100
0001
0100
0000
0001
1000
0001
0000
,
1000
0100
1000
0001
1000
0010
1000
0100
,
1000
0001
0010
0000
0001
1000
0100
0000
,
1000
0100
0010
0001
,
0100
0010
1000
0000
0010
0100
0001
0000
,
1000
0001
0100
0010
,
1000
0010
1000
0000
1000
0100
1000
0000
,
0001
0010
0100
1000
,
0001
0100
0001
0000
0001
0010
0001
0010
,
0000
0100
1000
0001
0100
0000
0000
0000
,
0210
0000
0000
0000
0001
0000
0000
0010
,
0000
0010
0000
0010
0310
0000
0000
0000
,
0120
0000
0000
0000
1000
0000
0000
0100
,
0000
0100
0000
0100
0130
0000
0000
0000
,
0101
0001
1000
1000
,
0010
0010
0100
0100
,
0001
1000
0100
0010
,
0001
0010
0001
0010
0100
1000
0100
0010
,
0002
0000
0000
1000
,
2000
3000
0000
0200
0300
0000
0010
0000
,
0020
0000
0030
0100
,
0200
0300
0000
2000
3000
0000
0010
0000
,
0013
0000
0100
0000
0010
0001
1000
0000
,
0100
0000
0010
0000
0100
1000
0001
0000
,
1000
0001
0100
0010
,
1010
0101
1100
0011
,
0001
0010
0100
0010
0001
0010
0100
0000
,
1000
0100
0010
0100
1000
0100
0010
0000
,
0001
0100
0010
0100
0001
0100
0010
0000
,
1000
0010
0100
0010
1000
0010
0100
0000
,
0010
1000
0001
1000
0100
0010
0001
0000
,
0010
0001
1000
0001
0100
0010
1000
0000
,
0100
0010
0001
0100
0010
1000
0100
0010
,
0000
0002
2003
3002
1003
0000
0000
0220
,
0000
0000
0000
0330
,
2002
3003
0000
0000
;

//--------------- dance-double - HellKiteChaos ----------------
#NOTES:
     dance-double:
     HellKiteChaos:
     Challenge:
     12:
     0,0,0,0,0:
00000000
00000000
00000000
00000000
,
00000000
00000000
00000000
00000000
,
00000000
00000000
00000000
00000000
,
00001000
00000000
00010000
00000000
,
00001000
00000100
00000010
00001001
,
00000001
00000100
00000000
00000010
00001000
00000000
00011000
00000000
,
00001000
00100000
00000000
01000000
10000000
00000000
10010000
00000000
,
10000000
00100000
00000000
01000000
00001000
00000000
01001000
00000000
,
00100000
00010000
01000000
00000000
00001000
00010000
00001000
00010000
,
00000100
00000010
00000000
00000001
00001000
00000000
00001001
00000000
,
00001000
00000010
00000000
00000100
00000001
00000000
00001100
00000000
,
00000010
00000100
00000000
00010000
00001000
00000000
00011000
00000000
,
01000000
00100000
00000000
00100000
01000000
01000000
00010000
00000000
,
10000000
01000000
00010000
00000000
00001000
00000010
00000001
00000000
,
00000100
00000010
00010000
00001000
00022000
00000000
00033000
00000000
,
00001000
00000000
01000000
00000000
00010000
00100000
01000000
00000000
,
10000000
00000000
00010000
01000000
00000000
00100000
01000000
00010000
,
00100000
00000000
01000000
00000000
00100000
00001000
00010000
00000000
,
00000010
00000000
00000100
00000001
00000000
00001000
00000010
00000100
,
00000001
00000000
00001000
00000000
00000100
00000010
00001000
00000000
,
00000010
00000000
00000100
00000000
00010000
00001000
01000000
00100000
,
10000000
00000000
00010000
01000000
00000000
00100000
10000000
00000000
,
00010000
00100000
00010000
00100000
00001000
00010000
00000010
00001000
,
00000010
00001000
00000010
00000000
00000100
00000001
00000100
00000000
,
00000010
00000000
00000100
00000000
00000001
00000100
00001000
00010000
,
00100000
10000000
00100000
00000000
01000000
00010000
01000000
00000000
,
00100000
10000000
01000000
00100000
00000000
00100000
01100000
00000000
,
00100000
00010000
01000000
00000000
00100000
10000000
01000000
00000000
,
00100000
00010000
01000000
00001000
00010000
00000100
00000010
00000001
,
00001000
00000000
00000010
00000100
00000000
00000010
00000100
00000001
,
00001000
00000100
00001000
00000100
00001000
00000000
00010100
00000000
,
00010000
00001000
00010000
00001000
00000000
00010000
00001000
00100000
,
01000000
01100000
10000000
01000000
,
00100000
00000000
00100000
00010000
00000000
10000000
01000000
00000000
,
00100000
00001000
00010000
00001000
01000000
00100000
10000000
00000000
,
00010000
00100000
01000000
00010000
00000000
00001000
00010000
00001000
,
00000010
00000100
00000010
00000001
,
00000100
00000001
00000100
00000000
00000010
00001000
00000010
00010000
,
00000000
00001000
00010000
00001000
00010000
00000000
00011000
00000000
,
00001000
01000000
00001000
00000000
00010000
00000100
00010000
00000000
,
00011000
01001000
00011000
00010100
,
00001000
00100000
00001000
00000000
00010000
00000010
00010000
00000000
,
00011000
00101000
00011000
00010010
,
00010000
00001000
00000100
00000000
00001000
00010000
01000000
00000000
,
00010000
00001000
00010000
00001000
00010000
00001000
00010000
00000000
,
00011000
00010100
00011000
01001000
,
00001000
00100000
00010000
01000000
00001000
00010000
00000010
00001000
,
00000100
00010000
00000100
00000000
00000010
00000001
00000010
00000000
,
00000001
00000100
00001000
00010000
,
00100000
10000000
00100000
00000000
10000000
01000000
10000000
00000000
,
01000000
00010000
00001000
00000010
,
00000001
00000010
00000001
00000000
00000100
00000001
00000100
00000000
,
00000010
00000100
00001000
00010000
,
00001000
00010000
00001000
00000000
00010000
00001000
00100000
00010000
,
00000000
01000000
00100000
10000000
01000000
00000000
00000000
00000000
,
02100000
00000000
00000000
00000000
00010000
00000000
00000000
00100000
,
00000000
00100000
00000000
10000000
13000000
00000000
00010000
00000000
,
02010000
00000000
00000000
00000000
00100000
00000000
00000000
00001000
,
00000000
00001000
00000000
00010000
03010000
00000000
00010000
00100000
,
00101000
00001000
00010000
00000100
,
00000010
00000001
00001000
00000010
,
00000100
00001000
00010000
00100000
,
10000000
01000000
00100000
00010000
01000000
00100000
10000000
01000000
,
00020000
00000000
00000000
01000000
,
02000000
03000000
00000000
02000000
03000000
00000000
00001000
00000000
,
00002000
00000000
00003000
00001000
,
00000020
00000030
00000000
00000020
00000030
00000000
00000010
00000000
,
00031000
00010000
00001000
00010000
,
00000100
00000010
00000100
00000010
,
00000001
00001000
00000001
00001000
,
00000101
00001010
00011000
00011000
,
00001000
00100000
01000000
00100000
00010000
00100000
01000000
00000000
,
10000000
01000000
00100000
01000000
10000000
01000000
00010000
00000000
,
00001000
00000010
00000001
00000010
00000100
00000010
00000001
00000000
,
00000100
00000010
00001000
00000001
00000010
00000100
00001000
00000000
,
00010000
00001000
00010000
00001000
01000000
00001000
01000000
00001000
,
00100000
00010000
00100000
00010000
10000000
00100000
10000000
00100000
,
01000000
00001000
00010000
00000010
00010000
00001000
00100000
00010000
,
01000000
00100000
01000000
00001000
00010000
00000000
00000000
00022000
,
00000000
00000000
00000000
00000000
00000000
00033000
00000000
00000000
,
02000200
00000000
03000300
00000000
;
