#TITLE:BABY BABY GIMME YOUR LOVE;
#SUBTITLE:;
#ARTIST:DIVAS;
#TITLETRANSLIT:;
#SUBTITLETRANSLIT:;
#ARTISTTRANSLIT:;
#GENRE:;
#CREDIT:;
#MUSIC:BABY BABY GIMME YOUR LOVE.mp3;
#BANNER:BABY BABY GIMME YOUR LOVE.png;
#BACKGROUND:BABY BABY GIMME YOUR LOVE-bg.png;
#CDTITLE:;
#SAMPLESTART:50.040;
#SAMPLELENGTH:10.625;
#SELECTABLE:YES;
#OFFSET:-0.040;
#BPMS:0.000=96.000;
#STOPS:;
#DISPLAYBPM:96.000;
#BGCHANGES:;
#FGCHANGES:;

//--------------- dance-single - HellKiteChaos ----------------
#NOTES:
     dance-single:
     HellKiteChaos:
     Challenge:
     11:
     0,0,0,0,0:
0000
0000
0000
0000
,
0000
0000
0000
0000
,
0001
0100
0100
0000
1000
0010
0010
0100
,
0200
0300
0001
0010
0100
1000
0010
0100
,
0002
0000
0000
0000
0000
0000
0003
0000
0002
0000
0000
0000
0003
0000
0000
0000
0002
0000
0003
0000
0000
0000
0000
0000
0002
0003
0000
0000
0000
0000
0000
0000
,
0101
0000
0000
0000
1000
0100
0010
0001
,
2000
0000
0000
0000
0000
0000
3000
0000
2000
0000
0000
0000
3000
0000
0000
0000
2000
0000
3000
0000
0000
0000
0000
0000
2000
3000
0000
0000
0000
0000
0000
0000
,
1100
0000
1100
0000
0011
0001
0100
0010
,
2000
0000
0000
0000
0010
0000
3000
0000
2000
0000
0000
0000
3010
0000
0000
0000
0200
0000
0300
0000
0001
0000
0000
0000
0200
0300
0000
0000
0001
0000
0000
0000
,
1000
0000
0001
0000
0100
0010
1000
0100
,
0020
0000
0000
0000
0001
0000
0030
0000
0020
0000
0000
0000
0031
0000
0000
0000
2000
0000
3000
0000
0100
0000
0000
0000
2000
3000
0000
0000
0100
0000
0000
0000
,
0010
0011
0101
1100
,
1010
1000
2000
3000
0001
0001
0100
0010
,
0110
0100
0200
0300
0010
1000
0001
0010
,
0001
0001
0001
0100
1000
1000
1000
0100
,
0001
0100
0010
1000
0100
0010
0001
1000
,
1200
1000
1300
0000
0201
0001
0301
0000
,
2010
0010
3010
1000
0010
0001
1000
0000
,
0001
0010
1000
0001
0001
0010
1000
0001
,
0001
0000
0100
0000
0010
0000
1000
0000
0100
0010
0001
1000
0100
0010
0001
1000
,
0001
1000
0000
0000
0001
0101
0000
0010
,
1010
0000
0000
0000
1000
0000
0000
0000
0001
0000
0000
0000
0100
0000
0010
1000
,
0010
1010
0000
0000
0100
0101
0000
0001
,
1001
0001
2000
3200
,
0310
0011
0000
0000
0100
1100
0000
1001
,
1001
0000
0000
0000
1000
0000
0000
0000
0010
0000
0000
0000
0100
0000
0001
1000
,
0001
0001
0000
0000
0010
0011
0000
0100
,
2100
3020
0230
0301
,
0001
0000
0001
1000
0000
1000
0000
0000
0000
0000
0010
0100
0001
0000
0000
1000
,
0000
1000
0000
0000
0100
0000
0000
0000
0010
0000
0010
0000
0001
0000
0100
0010
,
1000
1000
0000
0000
0001
0001
0000
0100
,
0101
0000
0001
0100
0001
0000
1000
0001
1000
0000
0001
0000
0001
0000
0010
0000
,
0200
0000
0000
0000
0320
0000
0000
0031
,
0001
0000
0100
0000
0010
0000
1000
0100
,
1000
1000
0000
0000
0010
0010
0000
0100
,
0110
0000
0000
0000
0001
0000
0001
0000
1000
0001
0000
0001
0000
1000
0000
1000
,
0000
0001
0000
0001
0000
1000
0000
1000
0000
0001
0000
0001
0000
1000
0000
0001
,
0000
2000
0002
0000
0000
0000
3003
0000
;

//--------------- dance-double - HellKiteChaos ----------------
#NOTES:
     dance-double:
     HellKiteChaos:
     Challenge:
     11:
     0,0,0,0,0:
00000000
00000000
00000000
00000000
,
00000000
00000000
00000000
00000000
,
00001000
00010000
00010000
00000000
00001000
00100000
00100000
01000000
,
00020000
00030000
00001000
00000010
00000100
00001000
00000001
00000100
,
00000020
00000000
00000000
00000030
00000020
00000000
00000030
00000000
00000020
00000030
00000000
00000000
00000010
00000000
00000000
00000000
,
00000101
00000000
00000000
00000000
00000100
00000010
00000100
00001000
,
00020000
00000000
00000000
00030000
00020000
00000000
00030000
00000000
00020000
00030000
00000000
00000000
00010000
00000000
00000000
00000000
,
00011000
00000000
01100000
00000000
10010000
00010000
01000000
00100000
,
01000000
00010000
01000000
00001000
01000000
00010000
01000000
00001000
,
00010000
00000000
00010000
00000000
00001000
00010000
00000100
00000010
,
00001000
00010000
00001000
00000010
00001000
00010000
00001000
00100000
,
00010000
00110000
11000000
01010000
,
10100000
10000000
20000000
30000000
00010000
00010000
01000000
00001000
,
00010000
00001000
00011000
00000000
00010000
00000100
00001000
00000010
,
00000100
00000100
00000100
00000001
00000010
00000010
00000010
00001000
,
00010000
00010000
00010000
01000000
00100000
00010000
00100000
01000000
,
12000000
10000000
13000000
00000000
02010000
00010000
03010000
00000000
,
02100000
00100000
03100000
10000000
00100000
00010000
00001000
00000100
,
00000010
00001000
00000010
00000001
00000010
00001000
00000010
00000001
,
00000010
00000000
00000100
00000000
00000001
00000000
00001000
00000000
00000100
00010000
00000100
00010000
00001000
00010000
00001000
00010000
,
00001000
00010000
00000000
00000000
01010000
01000000
00000000
00100000
,
10100000
00000000
00000000
00000000
10000000
00000000
00000000
00000000
01000000
00000000
00000000
00000000
00100000
00001000
00100000
00000000
,
00001000
00110000
00000000
00000000
00001000
01001000
00000000
01000000
,
00100000
00010000
00001000
00000010
,
00000001
00000011
00000000
00000000
00000100
00010100
00000000
00011000
,
00011000
00000000
00000000
00000000
00100000
00000000
00000000
00000000
00001000
00000000
00000000
00000000
01000000
00000000
00010000
10000000
,
00010000
00010000
00000000
00000000
00100000
00110000
00000000
00100000
,
00012000
00203000
02300000
03010000
,
00001000
00000000
00001000
00010000
00000000
00010000
00000000
00000000
00000000
00000000
00001000
00010000
00001000
00000000
00000000
00010000
,
00000000
00000010
00000000
00000010
00000100
00000000
00000001
00000100
00000001
00000000
00001000
00000010
00001000
00000100
00001000
00000100
,
00010000
00001000
00011000
00000000
00010000
00010000
00000000
00001000
,
00100000
00100000
01000000
01000000
10000000
00010000
00010000
00100000
,
02000000
00000000
00000000
00000000
03200000
00000000
00000000
00310000
,
00020000
00000000
02030000
00000000
03001000
00010000
00001000
00000100
,
00000010
00000100
00000100
00000010
00010000
00001000
00001000
00100000
,
01000000
00000000
00000000
00000000
11000000
00000000
00000000
10000000
00000000
10000000
00000000
00010000
00000000
00010000
00000000
01000000
,
00000000
01000000
00000000
00001000
00000000
00001000
00000000
00010000
00000000
00010000
00000000
00000010
00000000
00000010
00000000
00000010
,
00000000
00000200
00000002
00000000
00000000
00000000
00000303
00000000
;
