#TITLE:B4U;
#SUBTITLE:;
#ARTIST:NAOKI;
#TITLETRANSLIT:;
#SUBTITLETRANSLIT:;
#ARTISTTRANSLIT:;
#GENRE:Dance Dance Revolution 4th Mix,Dancing Stage Euromix 2;
#CREDIT:;
#MUSIC:B4U.mp3;
#BANNER:B4U.png;
#BACKGROUND:B4U-bg.png;
#CDTITLE:;
#SAMPLESTART:61.946;
#SAMPLELENGTH:15.281;
#SELECTABLE:YES;
#OFFSET:-0.047;
#BPMS:0.000=155.091;
#STOPS:;
#DISPLAYBPM:155.000;
#BGCHANGES:;
#FGCHANGES:;

//--------------- dance-single - HellKiteChaos ----------------
#NOTES:
     dance-single:
     HellKiteChaos:
     Challenge:
     15:
     0,0,0,0,0:
0000
0000
0000
0000
,
0000
0000
0000
0000
,
0000
0000
0000
0000
,
0000
0000
0000
0000
0000
0000
0000
0000
0000
0000
0000
0000
1000
0001
1000
0001
,
1000
0100
0010
0002
0000
0003
0001
0010
0100
2000
0000
3000
1000
0010
0100
0002
,
0000
0003
0100
0000
0010
0000
0100
0000
0001
1000
0001
1000
0001
0000
1000
0000
,
0001
0010
0100
2000
0000
3000
1000
0100
0010
0002
0000
0003
0001
0100
0010
2000
,
0000
3000
0010
0100
0010
0000
0100
0000
0001
0000
0100
0000
0001
0000
1000
0000
,
0001
0000
1000
0100
0000
0000
1000
0000
0100
0000
0010
0000
0110
0000
0000
0000
,
0001
0010
0001
0000
1000
0001
1000
0000
0100
0000
0100
0000
0110
0000
0000
0000
,
0010
0000
0001
0010
0100
0000
1000
0000
0001
0000
1000
0100
0010
0000
0001
0000
,
0100
0000
0010
0100
0010
0000
0100
0000
0100
0000
0001
0000
1000
0000
1000
0000
,
0001
0000
0100
0010
1000
0000
0001
0000
1000
0000
0000
1001
0000
0000
1000
0001
,
0100
0010
1000
0001
1000
0000
0100
0000
0010
0000
0001
0000
1001
0000
0000
0000
,
1000
0000
0010
0100
0001
0000
1000
0000
0001
0000
0000
1001
0000
0000
1000
0000
,
0001
0010
0100
0000
1000
0100
0010
0000
0001
1000
0001
1000
0001
0000
0100
0000
,
0010
0000
0000
1000
0000
0010
0000
1000
0000
0010
0000
0100
0010
0000
1000
0000
,
0001
0010
0100
0010
0000
0100
0010
0100
1000
0001
1000
0000
0100
0000
0010
0000
,
0001
0010
0000
0001
0000
1000
0000
0001
0000
1000
0000
0100
0010
0000
0001
0000
,
1000
0100
1000
0100
1000
0000
0001
0010
0001
0010
0001
0000
1000
0000
0010
0000
,
0100
0010
0000
1000
0000
0001
0000
1000
0000
0001
0000
0100
0010
0000
1000
0000
,
0001
0100
0010
0100
0000
0010
0100
0010
1000
0001
1000
0000
0100
0000
0010
0000
,
0001
0100
0000
0010
0000
1000
0000
0010
0000
1000
0000
0001
0010
0000
0100
0000
,
1000
0100
0010
0100
1000
0000
0001
0010
0100
0010
0001
0000
1000
0000
0001
0000
,
1001
0000
2000
0000
0000
3200
0000
0000
0320
0000
0000
0032
0000
0000
1003
0000
,
1001
0000
0002
0000
0000
0203
0000
0000
0320
0000
0000
2030
0000
0000
3001
0000
,
1001
0000
2000
0000
0000
3200
0000
0000
0302
0000
0000
0203
0000
0000
1300
0000
,
1002
0000
0000
0000
0023
0000
0000
0000
1030
0000
0000
0010
0001
0000
1000
0000
,
0001
0201
0000
1000
0000
0001
0000
1300
,
0100
0120
0000
0001
0000
1000
0000
0031
,
0010
2001
0000
0100
0000
0010
0000
3001
,
0010
0100
1000
0010
0100
0001
0010
0100
,
1000
0000
0001
1000
0001
1000
0010
0000
0100
0000
0010
0000
0110
0000
0100
0000
,
0001
0100
0001
0000
1000
0000
0100
0010
0100
0000
0010
0000
0001
0000
1000
0000
,
0010
0000
0100
0001
1000
0000
0100
0000
0010
0000
0010
0000
0010
0000
0001
1000
,
0100
0000
0010
0001
0100
0000
0010
1000
0001
0000
1000
0000
0001
0000
1001
0000
,
1001
0000
0001
1000
0100
0000
0010
0000
0100
0000
0010
0000
0001
0000
1000
0000
,
0010
0100
0010
0100
0001
1000
0100
0010
,
0001
0010
0011
0001
1000
0100
1000
0001
,
1001
0000
0110
0000
1001
1000
0001
1000
,
0001
0000
0000
1000
0000
0010
0000
1000
0000
0010
0000
0100
0010
0000
1000
0000
,
0001
0010
0100
0010
0000
0100
0010
0100
1000
0001
1000
0000
0100
0000
0010
0000
,
0001
0010
0000
0001
0000
1000
0000
0001
0000
1000
0000
0100
0010
0000
0001
0000
,
1000
0100
1000
0100
1000
0000
0001
0010
0001
0010
0001
0000
1000
0000
0010
0000
,
0100
0010
0000
1000
0000
0001
0000
1000
0000
0001
0000
0100
0010
0000
1000
0000
,
0001
0100
0010
0100
0000
0010
0100
0010
1000
0001
1000
0000
0100
0000
0010
0000
,
0001
0100
0000
0010
0000
1000
0000
0010
0000
1000
0000
0001
0010
0000
0100
0000
,
1000
0100
0010
0100
1000
0000
0001
0010
0100
0010
0001
0000
1000
0000
0001
0000
,
1001
0000
0000
1000
0000
0000
1000
0000
1001
0000
0000
0001
0000
0000
0001
0000
,
0110
0000
0000
0100
0000
0000
0100
0000
0110
0000
0000
0010
0000
0000
0010
0000
,
1010
0101
1010
0101
,
1000
0000
0100
0000
0010
0000
0001
0000
1000
0010
0100
0001
1000
0000
0000
0000
,
1000
0000
0000
0001
0000
0100
0000
0001
0000
0100
0000
0010
0100
0000
0001
0000
,
1000
0100
0010
0100
0000
0010
0100
0010
0001
1000
0001
0000
0010
0000
0100
0000
,
1000
0100
0000
1000
0000
0001
0000
1000
0000
0001
0000
0010
0100
0000
1000
0000
,
0001
0010
0001
0010
0001
0000
1000
0100
1000
0100
1000
0000
0001
0000
0100
0000
,
0010
0100
0000
0001
0000
1000
0000
0001
0000
1000
0000
0010
0100
0000
0001
0000
,
1000
0010
0100
0010
0000
0100
0010
0100
0001
1000
0001
0000
0010
0000
0100
0000
,
1000
0010
0000
0100
0000
0001
0000
0100
0000
0001
0000
1000
0100
0000
0010
0000
,
0001
0010
0100
0010
0001
0000
1000
0100
0010
0100
1000
0000
0001
0000
1000
0000
,
1001
0101
0000
1010
0101
1010
0101
0000
,
2002
0000
0000
0000
,
3003
0000
0000
0000
;

//--------------- dance-double - HellKiteChaos ----------------
#NOTES:
     dance-double:
     HellKiteChaos:
     Challenge:
     15:
     0,0,0,0,0:
00000000
00000000
00000000
00000000
,
00000000
00000000
00000000
00000000
,
00000000
00000000
00000000
00000000
,
00000000
00000000
00000000
00000000
00000000
00000000
00000000
00000000
00000000
00000000
00000000
00000000
00001000
00010000
00001000
00010000
,
00001000
00100000
00010000
00100000
00000000
00000000
00001000
00010000
00001000
01000000
00000000
00000000
00010000
00100000
01000000
00100000
,
00000000
00000000
01000000
00000000
00100000
00000000
00001000
00000000
00010000
00000100
00010000
00000000
00001000
00100000
00001000
00000000
,
00010000
00001000
00010000
00001000
00000000
00000000
00010000
00000010
00010000
00000100
00000000
00000000
00001000
00000100
00000010
00000100
,
00000010
00001000
00000010
00000100
00001000
00000010
00000100
00000010
,
00010000
00000000
00001000
00010000
00001000
00000000
01000000
00000000
00001000
00000000
00010000
00000000
00001000
00000000
00010000
00000100
,
00010000
00000100
00010000
00000000
00000010
00001000
00000010
00000000
00000100
00000000
00000010
00000000
00001010
00000000
00000000
00000000
,
00000010
00000000
00001000
00000100
00000000
00010000
00001000
00010000
00001000
00000000
00100000
00000000
00010000
00000000
01000000
00000000
,
00100000
00010000
00100000
01000000
00001000
00100000
00010000
01000000
,
00001000
00000000
00010000
00001000
00010000
00000000
00001000
00000000
01001000
00000000
00000000
00101000
00000000
00000000
00001000
00010000
,
01000000
00100000
00010000
01000000
00100000
00000000
01000000
00000000
00100000
00000000
01000000
00000000
01001000
00000000
00000000
00000000
,
00001000
00000000
00100000
00010000
00100000
00000000
01000000
00000000
00010000
00000000
00001000
00000000
00000010
00000000
00000100
00000000
,
00001000
00000100
00001000
00000000
00000010
00001000
00000010
00000000
00010000
00001000
00010000
00001000
00010000
00000000
00001000
00000000
,
01000000
00000000
00000000
00100000
00000000
01000000
00000000
00100000
00000000
01000000
00000000
00001000
00010000
00000000
00001000
00000000
,
00100000
01000000
00100000
01000000
00000000
01000000
00100000
01000000
00100000
00000000
00010000
00000000
01000000
00000000
00001000
00000000
,
00010000
00000000
00000000
00000100
00000000
00000010
00000000
00000100
00000000
00000010
00000000
00000100
00001000
00000000
00000010
00000000
,
00000100
00000010
00000100
00000010
00000100
00000000
00000010
00010000
00000010
00010000
00000010
00000000
00010000
00000000
00001000
00000000
,
00010000
00000000
00000000
01000000
00000000
00100000
00000000
01000000
00000000
00100000
00000000
00010000
01000000
00000000
00100000
00000000
,
01000000
00010000
01000000
00010000
01000000
00000000
00001000
00010000
00001000
00010000
00001000
00000000
00100000
00000000
00001000
00000000
,
00010000
00000000
00000000
00000100
00000000
00000010
00000000
00000100
00000000
00000010
00000000
00000100
00001000
00000000
00000100
00000000
,
00010000
00000100
00010000
00000100
00010000
00000000
00001000
00100000
00001000
00100000
00001000
00000000
00100000
00000000
01000000
00000000
,
01100000
00000000
00100000
00000000
00000000
00010000
00000000
00000000
01000000
00000000
00000000
00100000
00000000
00000000
00010000
00000000
,
00001000
00000000
00000100
00000000
00000000
00000010
00000000
00000000
00001000
00000000
00000000
00000100
00000000
00000000
00000010
00000000
,
00001000
00000000
00010000
00000000
00000000
01000000
00000000
00000000
00100000
00000000
00000000
00010000
00000000
00000000
01000000
00000000
,
00001000
00000000
00010000
00000000
00000100
00000000
00001000
00000000
00000010
00000000
00000000
00000100
00000010
00000000
00010000
00000000
,
00001000
00021000
00000000
00000100
00000000
00000010
00000000
00031000
,
00010000
00012000
00000000
01000000
00000000
00100000
00000000
00013000
,
00001000
00021000
00000000
00030100
00010000
00012000
00000000
01003000
,
00001000
01000000
00100000
00010000
00100000
01000000
00010000
00000000
,
00100000
01000000
00100000
00010000
01000000
00100000
00010000
00100000
,
01000000
00001000
00100000
01000000
00010000
00001000
00000010
00000100
,
00001000
00000010
00000100
00001000
00010000
00100000
01000000
00010000
,
00100000
01000000
00010000
01000000
00100000
00010000
01000000
00001000
,
00010000
00000100
00000010
00001000
00000010
00000100
00010000
00001000
,
00100000
01000000
00010000
01000000
00100000
00010000
01000000
00001000
,
00100000
00010000
01000000
00001000
00000100
00001000
00010000
00000010
,
00001000
00000100
00010000
00001000
00100000
00010000
00100000
00001000
,
00010000
00000000
00000000
00000100
00000000
00000010
00000000
00000100
00000000
00000010
00000000
00000100
00010000
00000000
00001000
00000000
,
01000000
00010000
01000000
00010000
00000000
01000000
00100000
01000000
00100000
00000000
01000000
00000000
00010000
00000000
00100000
00000000
,
00001000
00000000
00000000
00100000
00000000
01000000
00000000
00100000
00000000
01000000
00000000
00100000
00001000
00000000
00010000
00000000
,
00001000
00010000
00001000
00010000
00001000
00000000
00100000
00010000
00100000
00010000
00100000
00000000
00001000
00000000
00010000
00000000
,
00000100
00000000
00000000
00000010
00000000
00000100
00000000
00000010
00000000
00000100
00000000
00000010
00001000
00000000
00010000
00000000
,
01000000
00100000
01000000
00100000
00000000
01000000
00100000
01000000
00100000
00000000
00010000
00000000
01000000
00000000
00100000
00000000
,
00010000
00000000
00000000
00001000
00000000
00010000
00000000
00001000
00000000
00010000
00000000
00001000
00000100
00000000
00000010
00000000
,
00001000
00000010
00001000
00000010
00010000
00000000
00001000
00010000
00001000
00010000
01000000
00000000
00100000
00000000
00010000
00000000
,
01010000
00000000
00000000
01000000
00000000
00000000
01000000
00000000
01001000
00000000
00000000
00001000
00000000
00000000
00001000
00000000
,
00011000
00000000
00000000
00010000
00000000
00000000
00010000
00000000
00010010
00000000
00000000
00000010
00000000
00000000
00000010
00000000
,
00000110
00011000
01100000
00011000
,
00001000
00000000
00100000
00000000
00001000
00000000
00010000
00000000
00000100
00001000
00000010
00010000
00000100
00000000
00000000
00000000
,
00011000
00000000
00000000
00001000
00000000
00100000
00000000
00001000
00000000
00100000
00000000
00010000
01000000
00000000
00001000
00000000
,
00010000
00001000
00010000
00001000
00010000
00001000
00100000
00001000
00100000
00000000
01000000
00000000
00010000
00000000
01000000
00000000
,
00100000
00000000
00000000
00010000
00000000
01000000
00000000
00010000
00000000
01000000
00000000
00001000
00010000
00000000
00000010
00000000
,
00000100
00000010
00000100
00000010
00001000
00000000
00000100
00010000
00000100
00010000
00001000
00010000
00001000
00100000
00001000
00100000
,
00001000
00000000
00000000
01000000
00000000
00100000
00000000
01000000
00000000
00010000
00000000
01000000
00100000
00000000
00010000
00000000
,
00100000
01000000
00100000
01000000
00001000
00000000
00010000
00001000
00010000
00001000
00000010
00000000
00000100
00000000
00010000
00000000
,
00001000
00000000
00000000
00010000
00000000
00000100
00000000
00010000
00000000
00001000
00000000
00100000
00010000
00000000
01000000
00000000
,
00100000
01000000
00010000
01000000
00100000
00000000
01000000
00010000
01000000
00001000
01000000
00000000
00001000
00000000
00010000
00000000
,
00011000
00010100
00000000
00011000
00101000
00011000
00010010
00000000
,
00022000
00000000
00000000
00000000
,
00033000
00000000
00000000
00000000
;
