#TITLE:Abyss;
#SUBTITLE:;
#ARTIST:dj TAKA;
#TITLETRANSLIT:;
#SUBTITLETRANSLIT:;
#ARTISTTRANSLIT:;
#GENRE:;
#CREDIT:;
#MUSIC:Abyss.mp3;
#BANNER:Abyss.png;
#BACKGROUND:Abyss-bg.png;
#CDTITLE:;
#SAMPLESTART:40.606;
#SAMPLELENGTH:10.986;
#SELECTABLE:YES;
#OFFSET:-0.054;
#BPMS:0.000=142.000
,32.000=143.000
,33.000=142.000
,66.000=143.000
,68.000=142.000
,80.000=143.000
,81.000=142.000
,128.500=137.000
,129.000=142.000
,135.000=136.000
,136.000=139.000
,137.000=140.000
,139.000=144.000
,141.000=146.000
,143.000=144.000
,146.000=140.000
,151.000=142.000
,155.000=144.000
,157.000=142.000
,161.000=146.000
,162.000=142.000
,168.000=143.000
,172.000=142.000
,194.000=140.000
,196.000=143.000
,197.000=142.000
;
#STOPS:128.000=2.960;
#DISPLAYBPM:142.000;
#BGCHANGES:;
#FGCHANGES:;

//--------------- dance-single - HellKiteChaos ----------------
#NOTES:
     dance-single:
     HellKiteChaos:
     Challenge:
     13:
     0,0,0,0,0:
0000
0000
0000
0000
,
0000
0000
0000
0000
,
2002
0000
0000
0000
,
0003
0000
0010
3010
,
0000
0102
0000
1003
0000
2100
0000
3001
,
0000
0012
0000
1003
0000
2010
0000
3001
,
1000
0001
1000
0000
0001
1000
0001
0000
1000
0100
1000
0000
0001
0010
0001
0000
,
1000
0001
1000
0001
1000
0001
1000
0000
0100
0010
0100
0010
0100
0010
0100
0000
,
1000
0000
0000
0000
0001
0000
0000
0001
1000
0000
0100
0000
0010
0000
0001
0000
,
0100
0010
1000
0100
0010
0001
0100
0010
,
1000
0000
0000
0000
0001
0000
0000
0010
0100
0000
1000
0000
0010
0000
0100
0000
,
0001
0010
0100
1000
0010
0100
0001
0010
,
0100
1000
0100
0000
0010
0001
0010
0000
,
0100
1000
0100
0001
0100
1000
0010
0100
,
0010
0000
0100
0000
0100
0010
1000
0001
,
0100
0010
1000
0100
1000
0100
0010
0001
,
1000
0010
0000
0100
0001
1000
0000
0100
,
1000
0001
1000
0001
0100
0001
1000
0100
,
1000
0001
0000
0100
0001
1000
0000
0010
,
1000
0001
0100
0010
1000
0100
0010
0001
,
1000
0100
0010
0100
1000
0100
0010
0100
,
1000
0010
0100
0001
1000
0010
0100
0001
,
0010
0001
0010
0100
1000
0010
0100
0001
,
0100
0000
0010
0000
1000
0000
0001
0000
0010
0000
0100
0000
1000
0001
1000
0001
,
1000
0100
0010
0001
1000
0100
0010
0001
,
1000
0010
0100
0001
1000
0010
0100
0001
,
0010
0100
1000
0001
0010
0100
1000
0010
,
0100
0001
1000
0010
0100
0001
1000
0100
,
0010
0001
0100
0001
0010
0001
0100
0001
,
0010
0001
0010
0001
0100
0001
0100
0001
,
1000
0010
1000
0100
1000
0010
1000
0100
,
1000
0010
1000
0010
0100
0001
0100
0001
,
1100
0000
2000
3200
2300
3200
0320
0000
,
0032
0000
0023
0230
2300
3002
0203
0000
,
0320
0000
0000
0000
2030
0000
3020
0000
2030
0000
3002
0000
0103
0000
0000
0001
,
0000
0000
0020
0000
0230
0000
0000
0000
0300
0000
2000
0000
3100
0010
0100
0010
,
0100
0020
0000
0000
0032
0000
0000
0000
0000
0000
0000
0000
0003
0000
0000
0000
,
2000
0000
3020
0230
0302
0203
0320
0000
,
2030
3002
0023
0000
0000
0230
2300
0000
,
0000
3002
0023
0230
2300
3010
0100
0010
,
0100
0001
1000
0001
1000
0000
0100
0000
0010
0000
0100
0000
1000
0000
0010
0000
,
0001
0010
1000
0100
0010
0001
0100
0010
,
1001
0000
0001
0100
0010
0100
0001
0010
,
1000
0010
0001
0100
0010
1000
0100
0010
,
1001
0000
1000
0010
1000
0100
1000
0010
,
0100
0001
0010
0001
0100
0001
0010
0100
,
1000
1000
0001
0100
0001
0010
0001
0100
,
0010
1000
0100
1000
0010
0010
0100
0100
,
0001
0000
0001
0000
1000
0000
0001
0000
0100
0000
0001
0100
0001
0000
1000
0000
,
1000
0001
0001
0010
0100
1000
0010
0000
,
0110
0000
0100
0001
0010
0001
0100
0010
,
1000
0000
0100
0000
1000
0001
1000
0000
0100
1000
0100
0000
1000
0010
1000
0000
,
0001
0100
0001
0000
1000
0000
0000
0000
0100
0000
0010
0000
0001
0000
0000
0000
,
0100
0010
1000
0000
0001
0010
0100
0000
,
1000
0000
0010
0000
1000
0000
0000
0000
0001
0000
1000
0001
1000
0000
0000
0000
,
0001
0000
0010
0001
0010
0000
0000
0000
1000
0000
0100
1000
0100
0000
0000
0000
,
2002
0000
0000
0000
,
3003
0000
0000
0000
;

//--------------- dance-double - HellKiteChaos ----------------
#NOTES:
     dance-double:
     HellKiteChaos:
     Challenge:
     13:
     0,0,0,0,0:
00000000
00000000
00000000
00000000
,
00000000
00000000
00000000
00000000
,
00022000
00000000
00000000
00000000
,
00030000
00000000
01000000
01003000
,
00000000
02010000
00000000
03100000
00000000
10200000
00000000
01300000
,
00000000
01002000
00000000
00013000
00000000
00010200
00000000
00000310
,
00000100
00000010
00000100
00000010
00000001
00001000
00000001
00001000
,
00000010
00000100
00000010
00000100
00000010
00000100
00000010
00000000
00010000
00000010
00010000
00000010
00010000
00000010
00010000
00000000
,
00001000
00000000
00000000
00000000
01000000
00000000
00000000
00100000
10000000
00000000
01000000
00000000
00100000
00000000
00010000
00000000
,
01000000
00100000
10000000
01000000
00010000
00001000
00000010
00000001
,
00001000
00000000
00000000
00000000
00000001
00000000
00000000
00000100
00000010
00000000
00001000
00000000
00000100
00000000
00000010
00000000
,
00000001
00000100
00001000
00010000
00100000
10000000
01000000
00100000
,
00010000
10000000
01000000
00000000
10000000
00010000
01000000
00000000
,
00100000
01000000
00001000
00010000
00001000
00000100
00000001
00001000
,
00000100
00000010
00000001
00000000
00000100
00000010
00001000
00000000
,
00000100
00000010
00000100
00000010
00000001
00001000
00000010
00010000
,
00001000
01000000
00000000
00100000
10000000
01000000
00000000
10000000
,
01000000
00010000
01000000
10000000
00010000
01000000
00001000
00010000
,
00000010
00000100
00000000
00000010
00000100
00000001
00000010
00000100
,
00001000
00000100
00001000
00000100
00010000
00001000
01000000
01000000
,
00100000
10000000
00100000
01000000
00010000
01000000
00100000
10000000
,
00100000
00010000
00001000
00000100
00000001
00000100
00000010
00001000
,
00000001
00001000
00000010
00000100
00000010
00001000
00000100
00010000
,
00001000
00010000
00001000
00010000
00001000
00010000
00001000
00010000
00001000
00010000
00001000
00010000
00001000
00010000
00001000
00010000
,
00001000
01000000
00100000
10000000
00001000
01000000
00100000
10000000
,
00001000
01000000
00100000
10000000
01000000
00010000
00001000
00000010
,
00000001
00010000
00000100
00000010
00000001
00010000
00000100
00000010
,
00000001
00000100
00000010
00010000
00001000
01000000
00100000
10000000
,
00010000
00100000
01000000
10000000
00001000
00100000
01000000
10000000
,
00001000
00100000
01000000
10000000
00100000
01000000
00001000
00010000
,
00000010
00000100
00000001
00001000
00000010
00000100
00000001
00010000
,
00000010
00000100
00000001
00000010
00001000
00010000
01000000
10000000
,
00010000
00000000
20000000
32000000
23000000
32000000
03200000
00000000
,
00302000
00000000
00023000
00030200
00020300
00030020
00002030
00000000
,
00003002
00000000
00000000
00000000
00000203
00000000
00000320
00000000
00002030
00000000
00003002
00000000
00000013
00000000
00000000
00001000
,
00000000
00000000
00000010
00000000
00000200
00000000
00000000
00000000
00000300
00000000
00001000
00000000
00000001
00000100
00000001
00000100
,
00000001
00002000
00000000
00000000
00003020
00000000
00000000
00000000
00000000
00000000
00000000
00000000
00000030
00000000
00000000
00000000
,
00020000
00000000
00032000
02003000
03020000
02030000
03200000
00000000
,
20300000
30020000
00230000
00000000
00000000
02300000
23000000
00000000
,
00000000
00000000
30010000
00000000
01000000
00000000
00001000
00000000
00010000
00000000
00000010
00000000
00000100
00000010
00000100
00000000
,
00000001
00001000
00000001
00000000
00001000
00000000
00000100
00000000
00000001
00000000
00000100
00000000
00001000
00000000
00000010
00000000
,
00000001
00000010
00001000
00000100
00010000
00001000
01000000
00100000
,
10010000
00000000
00010000
01000000
10000000
01000000
00010000
00100000
,
10000000
00100000
00010000
01000000
00001000
00010000
00000100
00000010
,
00001001
00000000
00001000
00000010
00010000
00000100
00001000
00000010
,
00010000
00001000
01000000
00100000
01000000
00010000
00100000
01000000
,
00100000
00001000
00100000
00010000
01000000
00001000
00100000
01000000
,
10000000
00010000
01000000
00100000
00010000
00001000
00000100
00000010
,
00001000
00000100
00000010
00000001
00000000
00001000
00000010
00000100
,
00000000
00000001
00001000
00000100
00000000
00000010
00000001
00000100
,
00000110
00000000
00000100
00000010
00010000
00001000
00010000
00001000
,
00100000
00000000
00010000
00000000
10000000
01000000
10000000
00000000
00010000
00000000
01000000
00000000
00100000
01000000
00100000
00000000
,
10000000
00010000
01000000
00000000
01000000
00100000
10000000
00000000
,
01000000
00100000
00001000
00000000
00010000
00000100
00001000
00000000
,
00000100
00010000
00001000
00000000
01000000
00100000
10000000
00010000
,
10000000
01000000
00010000
00001000
00000010
00000001
00000100
00000010
,
00000220
00000000
00000000
00000000
,
00000330
00000000
00000000
00000000
;
