#TITLE:AOI SHOUDOU(for EXTREME);
#SUBTITLE:;
#ARTIST:NAOKI feat.YUKI;
#TITLETRANSLIT:;
#SUBTITLETRANSLIT:;
#ARTISTTRANSLIT:;
#GENRE:;
#CREDIT:;
#MUSIC:AOI SHOUDOU(for EXTREME).mp3;
#BANNER:AOI SHOUDOU(for EXTREME).png;
#BACKGROUND:AOI SHOUDOU(for EXTREME)-bg.png;
#CDTITLE:;
#SAMPLESTART:0.000;
#SAMPLELENGTH:0.000;
#SELECTABLE:YES;
#OFFSET:-0.258;
#BPMS:0.000=145.000;
#STOPS:;
#DISPLAYBPM:145.000;
#BGCHANGES:;
#FGCHANGES:;

//--------------- dance-single - HellKiteChaos ----------------
#NOTES:
     dance-single:
     HellKiteChaos:
     Challenge:
     13:
     0,0,0,0,0:
0000
0000
0000
0000
,
0000
0000
0000
0000
,
0000
0000
0000
0000
,
0000
0000
0000
0000
0000
0000
0000
0000
0000
0000
0000
0000
0000
0000
0001
1000
,
0001
0100
0010
0100
0010
1000
0100
0020
,
0030
0100
0010
0001
1000
0000
1002
0003
,
1000
0010
0100
0020
0030
0100
0001
2000
,
0000
0000
3001
0000
0100
0000
0010
0000
1000
0001
1000
0001
1000
0000
0100
0000
,
0010
0000
0002
0000
0003
1000
0000
0001
0100
0000
0200
0000
0300
0001
0000
1000
,
0100
0000
0200
0000
0300
0010
0000
0001
1000
0000
1000
0000
0100
0000
0010
0000
,
0001
0000
1000
0000
0000
0001
0100
0001
0100
0000
0010
0000
1000
0000
0010
0000
,
1000
0000
0001
0000
0000
1000
0100
1000
0100
0000
0010
0000
0001
0000
0010
0000
,
0100
0000
1000
0000
0000
0001
0010
0001
0010
0000
0100
0000
0010
0000
0001
0000
,
0100
0000
0001
0000
0000
0000
1000
0010
1000
0010
0000
1000
0100
0000
1000
0000
,
0001
0000
0010
0000
0000
0100
0010
0100
0010
0000
0001
0000
0000
0100
0010
0100
,
0010
0000
1000
0000
0000
0100
0010
0100
0010
0000
0001
0000
0100
0000
0010
0000
,
1010
0000
0101
0000
1000
0001
0100
0001
,
0020
0000
0000
0031
0000
0000
1000
0000
0200
0000
0000
0310
0000
0000
0001
0000
,
2000
0000
0000
3010
0000
0000
0100
0000
0002
0000
0000
0013
0000
0000
0100
0000
,
2000
0000
0000
3010
0000
0000
0100
0000
0001
0000
1000
0000
0001
0000
1000
0000
,
0002
0000
0000
0013
0000
0000
0100
0000
2000
0000
0000
3010
0000
0000
0100
0000
,
0002
0000
0000
0013
0000
0000
0100
0000
1000
0000
0001
0000
1000
0000
0001
0000
,
0100
0000
0001
0100
0000
0001
0100
0000
0001
0000
1000
0100
0000
1000
0100
0000
,
1000
0000
0010
1000
0000
0010
1000
0000
0001
0000
0010
0001
0000
0010
0001
0000
,
1000
0000
0001
1000
0001
1000
0001
0000
1000
0100
1000
0100
1000
0000
0010
0100
,
0002
0000
0000
1000
0000
0000
1000
0000
2003
0000
0000
0000
3100
0000
0010
0000
,
0001
0010
0010
0110
0000
1100
0000
2001
,
0000
0000
3001
0000
0200
0000
0000
0000
0000
0000
0000
0000
0300
0000
0001
0100
,
0002
0000
0000
0000
0003
0000
1000
0100
2000
0000
0000
0000
3000
0000
0010
1000
,
0010
0000
1000
0000
0001
0000
1000
0000
0110
0000
0000
0000
1001
0000
0000
0001
,
1000
0100
0010
0001
0100
0010
1000
0100
,
0010
0001
1000
0010
0100
0001
1000
0010
,
0100
0001
0010
0100
1000
0001
0100
0010
,
1000
0100
0010
0001
1000
0100
0010
0001
,
2000
0000
0000
0010
0000
0000
0010
0000
0000
0000
0100
0000
0000
0100
0000
0000
,
3002
0000
0000
0100
0000
0000
0100
0000
0000
0000
0010
0000
0000
0010
0000
0000
,
1003
0000
0000
1000
0000
0000
0010
0000
0010
0000
0000
0010
0000
0000
0100
0000
,
0100
0000
0010
0000
0100
0000
0010
0000
1000
0000
0002
0000
0000
2003
0000
0000
,
3001
1000
0100
0010
0100
1000
0001
0010
,
0100
0010
0001
1000
0100
0010
0001
1000
,
0001
0010
0100
1000
0001
0010
0100
0010
,
0001
1000
0100
0010
0001
1000
0001
0000
,
1000
0000
0001
0100
0001
0100
0001
0000
1000
0000
0010
0000
1000
0000
0002
0000
,
0000
0013
0010
0100
0010
0010
0100
1000
,
0001
0000
1000
0100
1000
0100
1000
0000
0001
0000
0010
0000
0001
0000
1000
0000
,
0010
0100
0010
0100
0110
0000
1001
0000
,
1000
0000
0001
0000
1000
0000
0001
0100
0010
0000
1000
0000
0010
0000
2000
0000
,
0000
0000
3001
0000
0100
0000
0001
0000
1000
0001
1000
0000
0010
0000
0100
0000
,
0010
0000
0010
0000
0100
0000
0100
0000
0001
1000
0001
1000
0001
0000
1000
0000
,
0100
0000
0010
0000
0001
0000
0100
0000
0010
0100
0000
0000
1001
0000
0000
0000
,
1000
0000
0010
0000
0100
0001
1000
0001
1000
0000
0100
0000
1000
0000
0002
0000
,
0000
0000
1003
0000
0010
0000
0100
0000
0001
1000
0000
0000
0001
1000
0100
0000
,
0010
0100
0010
0020
0000
0031
0100
2000
,
0000
3100
0200
0000
0001
0000
0010
0000
,
0310
1001
0000
1001
0000
0110
0000
2000
,
0002
0000
0000
0000
,
3003
0000
0000
0000
;

//--------------- dance-double - HellKiteChaos ----------------
#NOTES:
     dance-double:
     HellKiteChaos:
     Challenge:
     14:
     0,0,0,0,0:
00000000
00000000
00000000
00000000
,
00000000
00000000
00000000
00000000
,
00000000
00000000
00000000
00000000
,
00000000
00000000
00000000
00000000
00000000
00000000
00000000
00000000
00000000
00000000
00000000
00000000
00000000
00000000
00001000
00010000
,
00001000
01000000
00100000
01000000
00100000
10000000
01000000
00200000
,
00300000
00010000
00100000
00001000
00010000
00000000
00020010
00030000
,
00000010
00000100
00000010
00002000
00003000
00000010
00000100
00000002
,
00000000
00000000
00000103
00000000
00000010
00000000
00001000
00000000
00000100
00010000
00000100
00010000
00001000
00010000
00001000
00010000
,
00001000
00000000
02000000
00000000
00000000
03100000
00000000
10000000
01000000
00000000
02000000
00000000
00000000
03100000
00000000
00010000
,
10000000
00000000
20000000
00000000
00000000
30010000
00000000
01000000
00010000
00000000
10000000
00000000
01000000
00000000
00010000
00000000
,
00001000
00000000
00000010
00000000
00000001
00000010
00000001
00000010
00000001
00000000
00000100
00000000
00000010
00000000
00000100
00000000
,
00000001
00000000
00000010
00000000
00000100
00001000
00000100
00001000
00000100
00000000
00000010
00000000
00001000
00000000
00010000
00000000
,
01000000
00000000
10000000
00000000
00010000
10000000
00010000
10000000
00010000
00000000
10000000
00000000
00100000
00000000
00010000
00000000
,
00001000
00000000
00000100
00000000
00000010
00000100
00000010
00000100
00000010
00001000
00000000
00000001
00000100
00000000
00000010
00000000
,
00001000
00000000
00000001
00000000
00000000
00001000
00000100
00001000
00000100
00000000
00010000
00000000
00000000
00001000
00100000
00001000
,
00100000
00000000
00010000
00000000
00000000
10000000
00100000
10000000
00100000
00000000
01000000
00000000
00010000
00000000
00100000
00000000
,
00110000
00000000
01010000
00000000
10000000
01000000
00010000
01000000
,
00200000
00000000
00000000
00310000
00000000
00000000
10000000
00000000
02000000
00000000
00000000
03010000
00000000
00000000
00001000
00000000
,
00000020
00000000
00000000
00000031
00000000
00000000
00001000
00000000
00000020
00000000
00000000
00000130
00000000
00000000
00000001
00000000
,
00000020
00000000
00000000
00001030
00000000
00000000
00010000
00000000
01000000
00000000
10000000
00000000
01000000
00000000
00010000
00000000
,
00002000
00000000
00000000
00003010
00000000
00000000
00000100
00000000
00020000
00000000
00000000
01030000
00000000
00000000
10000000
00000000
,
00200000
00000000
00000000
00310000
00000000
00000000
00001000
00000000
00000100
00000000
00000010
00000000
00001000
00000000
00000001
00000000
,
00001000
00000000
00000001
00000010
00000000
00000001
00000010
00000000
00000100
00000000
00010000
00001000
00000000
00010000
00001000
00000000
,
01000000
00000000
00100000
10000000
00000000
00100000
10000000
00000000
00010000
00000000
01000000
00001000
00000000
01000000
00001000
00000000
,
00010000
00000000
00001000
00000000
00000100
00000000
00000010
00000000
00010000
00000000
00001000
00000000
00010000
00001000
00010000
00001000
,
00020000
00000000
00000000
00001000
00000000
00000000
00001000
00000000
00032000
00000000
00000000
00000000
00013000
00000000
00100000
00000000
,
10000000
00100000
00100000
01100000
00000000
00110000
00000000
00102000
,
00000000
00000000
00013000
00000000
00020000
00000000
00000000
00000000
00000000
00000000
00000000
00000000
00030000
00000000
00001000
00000100
,
00000020
00000000
00000000
00000000
00000030
00000000
00000100
00000001
00000020
00000000
00000000
00000000
00000030
00000000
00000100
00010000
,
00001000
00000000
00001000
00000000
00010000
00000000
00001000
00000000
01001000
00000000
00000000
00000000
00010100
00000000
00000000
00000100
,
00000010
00000001
00000100
00000010
00010000
00001000
01000000
00100000
,
10000000
01000000
00100000
00010000
01000000
00001000
00010000
00000010
,
00000100
00001000
00000100
00000001
00000010
00001000
00010000
01000000
,
10000000
00100000
00010000
00100000
10000000
01000000
00100000
00010000
,
20000000
00000000
00000000
00100000
00000000
00000000
00100000
00000000
00000000
00000000
01000000
00000000
00000000
01000000
00000000
00000000
,
32000000
00000000
00000000
00100000
00000000
00000000
00100000
00000000
00000000
00000000
00010000
00000000
00000000
03010000
00000000
00000000
,
01000000
00000000
00000000
10000000
00000000
00000000
00100000
00000000
00010000
00000000
00000000
00001000
00000000
00000000
00000100
00000000
,
00000010
00000000
00000010
00000000
00000100
00000000
00000010
00000000
00001000
00000000
00000002
00000000
00000000
00002003
00000000
00000000
,
00003001
00000010
00001000
00000010
00000001
00000100
00001000
00010000
,
01000000
10000000
00100000
00010000
00100000
10000000
01000000
00100000
,
00010000
01000000
00001000
00100000
00010000
01000000
00001000
00010000
,
00000100
00000010
00001000
00010000
01000000
10000000
00100000
01000000
,
00010000
10000000
01000000
00100000
00001000
01000000
00001000
00020000
,
00000000
00000000
00130000
00000000
00100000
00000000
01000000
00000000
00100000
01000000
00000000
00010000
10000000
00000000
10000000
00000000
,
00010000
00100000
01000000
00010000
00001000
00000010
00000100
00001000
,
00000001
00000100
00000010
00001000
00001001
00000000
00011000
00000000
,
10010000
00000000
00010000
00000000
10000000
00000000
00010000
01000000
00001000
00000000
00100000
00000000
01000000
00000000
00020000
00000000
,
00000000
00032000
00000000
00003100
00000010
00001000
00000001
00000100
,
00000010
00010000
00001000
00100000
00010000
10000000
01000000
10000000
,
01000000
00000000
00100000
00000000
00010000
00000000
01000000
00000000
00100000
01000000
00000000
00000000
10010000
00000000
00000000
00000000
,
00010000
00000000
00100000
00000000
00001000
00100000
00001000
00100000
00001000
00000000
00010000
00000000
00000100
00000000
00002000
00000000
,
00000000
00003010
00000100
00000000
00000010
00000000
00000100
00000000
00000001
00001000
00000000
00000000
00000001
00001000
00000001
00000000
,
00000010
00000100
00000010
00000020
00000000
00000031
00000100
00000010
,
00010000
00002000
00010000
00103000
,
00100000
00110000
00000000
11000000
00000000
01100000
00000000
20000000
,
00020000
00000000
00000000
00000000
,
30030000
00000000
00000000
00000000
;
