#TITLE:AFRONOVA;
#SUBTITLE:;
#ARTIST:RE-VENGE;
#TITLETRANSLIT:;
#SUBTITLETRANSLIT:;
#ARTISTTRANSLIT:;
#GENRE:Dance Dance Revolution 3rd Mix,Dancing Stage Euromix 1;
#CREDIT:;
#MUSIC:AFRONOVA.mp3;
#BANNER:AFRONOVA.png;
#BACKGROUND:AFRONOVA-bg.png;
#CDTITLE:;
#SAMPLESTART:28.844;
#SAMPLELENGTH:12.300;
#SELECTABLE:YES;
#OFFSET:-0.044;
#BPMS:0.000=200.000;
#STOPS:;
#DISPLAYBPM:200.000;
#BGCHANGES:;
#FGCHANGES:;

//--------------- dance-single - HellKiteChaos ----------------
#NOTES:
     dance-single:
     HellKiteChaos:
     Challenge:
     14:
     0,0,0,0,0:
0000
0000
0000
0000
,
0000
0000
0000
0000
,
0000
0000
0000
0000
,
0000
0000
0000
0000
,
0000
0000
0000
0000
,
0000
0000
0000
0000
,
2002
0000
0000
0000
,
0000
0000
3003
0000
,
0011
0000
0000
0000
1000
0000
0100
0000
0010
0000
0100
1000
0100
0000
0000
0000
,
0101
0000
0000
0000
0001
0000
0100
0000
0010
0000
0100
0001
0100
0000
0000
0000
,
1100
0000
0000
0000
1000
0000
0100
0000
0010
0000
0001
1000
0001
0000
0000
0000
,
0010
0010
0100
1000
0010
0100
0001
0000
,
0101
0000
0000
0000
0100
0000
0010
0000
0100
0000
0001
0100
0001
0000
0000
0000
,
0011
0000
0000
0000
0100
0000
1000
0000
0100
0000
0010
0001
0010
0000
0000
0000
,
1100
0000
0000
0000
1000
0000
0010
0000
0100
0000
0001
1000
0001
0000
0000
0000
,
0010
0010
0100
0100
1000
1000
0001
0001
,
1000
0100
1100
1000
0001
0100
0101
0001
,
1000
0010
1010
1000
0001
0010
0011
0000
,
0100
0010
0110
0010
0001
1000
1001
0001
,
0100
0010
0110
0100
0010
1000
0100
0010
,
0001
0100
0110
0010
1000
0001
1001
1000
,
0100
1000
1100
0100
0010
0100
0110
0000
,
0010
0001
1000
0100
1000
0001
0010
0100
,
2000
0000
0010
0000
0000
0000
0001
0000
0000
0000
3100
0000
0010
0100
0010
0000
,
0002
0000
0000
0000
1003
0000
0000
0100
0010
0000
0100
0000
1000
0000
0001
0000
,
0002
0010
0013
0000
0210
0000
1300
0000
,
0102
0000
0000
0000
1003
0000
0000
0010
0100
0000
0001
0000
0001
0000
1000
0000
,
0200
0010
0310
0000
1002
0000
0103
0000
,
1020
0000
0000
0000
1030
0000
0000
0010
0100
0000
0010
0000
1000
0000
0001
0000
,
2000
0100
3100
0000
0120
0000
0031
0000
,
2001
0000
0000
0000
3001
0000
0000
0100
0010
0000
1000
0000
1000
0000
0001
0000
,
0020
0100
0130
0000
2002
0000
3003
0000
,
0001
0000
0100
0000
0010
0000
0000
0000
1000
0001
0100
0000
0010
0000
1000
0000
,
0001
0000
1000
0000
0100
0000
0000
0000
0010
0001
1000
0000
0100
0000
0010
0000
,
0001
1000
0010
0010
1000
0100
1000
1000
,
0001
0010
0100
1000
0001
1000
0000
0001
,
0100
0000
0010
0000
1000
0000
0000
0000
0010
1000
0001
0000
1000
0000
0100
0000
,
1000
0000
0001
0000
0010
0000
0000
0000
0100
1000
0001
0000
0010
0000
0100
0000
,
0010
0001
1000
0000
0010
0100
0001
0000
,
1000
0100
0001
0100
1000
0010
0100
0001
,
0100
0000
0100
0010
0100
0000
0100
0000
,
0100
0000
0100
1000
0100
0000
0100
0000
,
0100
0000
0100
0001
0100
0000
0100
0000
,
0110
0101
0110
1100
,
0100
0000
0100
0010
0100
0000
0100
0000
,
0100
0000
0100
0001
0100
0010
0110
0000
,
0000
0000
0000
1010
0000
0000
0000
0000
0000
0001
0000
0100
,
0000
0000
0000
1010
0000
1001
0000
1100
0000
1001
0000
1010
,
0000
0000
2000
0000
3001
0000
0001
0100
,
1000
0100
0010
0100
0001
0000
1000
0010
,
0001
0000
1000
0100
0001
0100
0010
0100
,
0001
0000
0001
0010
1000
0000
0001
0100
,
1000
0000
0001
0010
1000
0010
0100
1000
,
0001
0000
1000
0100
0001
1000
0010
0100
,
1000
0001
0010
0100
1000
0100
1100
0000
,
0101
1000
0100
0000
1100
0001
0100
0000
,
1100
0000
0101
0000
1010
0001
0010
0000
,
0011
1000
0010
0000
1000
0010
0100
0010
,
1000
0100
0010
0001
0100
0001
0010
0100
,
0010
0100
1000
0000
1100
0001
0100
0000
,
1010
0000
1100
0000
0101
1000
0100
0000
,
0100
1000
0011
0000
0001
1000
1000
0100
,
0010
0001
0101
0000
1000
0010
0100
0001
,
1000
0000
0010
0100
0001
0000
0000
0000
0001
0000
0010
0000
0001
0000
0100
0000
,
0011
0000
0101
0000
1000
0100
0010
0001
,
1000
0000
0001
1000
0001
0000
0000
0000
0001
0000
1000
0000
0001
0000
1000
0000
,
0101
0000
1010
0000
1000
0100
1000
0010
,
0100
0000
0010
0000
0100
0000
0001
0000
0010
0000
0001
0010
0002
0000
0000
0000
,
0103
0000
0011
0000
0010
0100
1000
0010
,
0001
0010
1000
0100
0001
0100
1000
0001
,
1000
0010
0100
0100
1001
0000
0000
0000
,
1001
0000
0101
0000
0011
0000
1001
0000
1100
0000
1010
0000
,
1001
0000
0000
0000
;

//--------------- dance-double - HellKiteChaos ----------------
#NOTES:
     dance-double:
     HellKiteChaos:
     Challenge:
     14:
     0,0,0,0,0:
00000000
00000000
00000000
00000000
,
00000000
00000000
00000000
00000000
,
00000000
00000000
00000000
00000000
,
00000000
00000000
00000000
00000000
,
00000000
00000000
00000000
00000000
,
00000000
00000000
00000000
00000000
,
00004000
00000000
00000000
00000000
,
00000000
00000000
00003000
00000000
,
00011000
00000000
00001000
00010000
00000100
00000010
00000001
00000000
,
00001100
00000000
00000100
00010000
00001000
01000000
00100000
00000000
,
10100000
00000000
00100000
01000000
00010000
00100000
01000000
00000000
,
10000000
00010000
01000000
00001000
00010000
00000010
00000100
00000001
,
00001001
00000000
00000001
00000010
00000100
00001000
00000001
00000000
,
00000101
00000000
00000010
00001000
00000010
00010000
00001000
00000000
,
00101000
00000000
00001000
00100000
00001000
01000000
00100000
00000000
,
10000000
01000000
00010000
00001000
00000010
00000001
00000100
00000100
,
00000010
00001000
00001010
00000010
00010000
00001000
00011000
00010000
,
01000000
00100000
01100000
01000000
10000000
00010000
10010000
10000000
,
00100000
01000000
01010000
00010000
01000000
00001000
00011000
00010000
,
00000100
00000010
00000001
00000100
00001000
00000100
00000001
00000010
,
00000100
00001000
00001010
00000010
00010000
00001000
00011000
00010000
,
00001000
01000000
01001000
00001000
00100000
01000000
01100000
00100000
,
00010000
10000000
00100000
01000000
00010000
00100000
01000000
00100000
,
00002000
00000000
00010000
00000000
00000000
00000000
01000000
00000000
00000000
00000000
00013000
00000000
00001000
00010000
00001000
00000000
,
00020000
00000000
00000000
00000000
00030100
00000000
00000000
00000010
00000100
00000000
00000010
00000000
00000001
00000000
00001000
00000000
,
00002000
00000010
00003010
00000000
00001010
00000000
00010010
00000000
,
00012000
00000000
00000000
00000000
00103000
00000000
00000000
01000000
00100000
00000000
01000000
00000000
10000000
00000000
00010000
00000000
,
00020000
01000000
01030000
00000000
01010000
00000000
01001000
00000000
,
00012000
00000000
00000000
00000000
00103000
00000000
00000000
01000000
00100000
00000000
01000000
00000000
10000000
00000000
00010000
00000000
,
00020000
01000000
01030000
00000000
01010000
00000000
01001000
00000000
,
00021000
00000000
00000000
00000000
00030100
00000000
00000000
00000010
00000100
00000000
00000010
00000000
00000001
00000000
00001000
00000000
,
00002000
00000010
00003010
00000000
00001002
00000000
00000013
00000000
,
00000100
00000000
00000010
00000000
00000100
00000000
00000000
00000000
00000100
00010000
00001000
00000000
00010000
00000000
00001000
00000000
,
01000000
00000000
00100000
00000000
01000000
00000000
00000000
00000000
00100000
10000000
00010000
00000000
01000000
00000000
00001000
00000000
,
00010000
00000100
00001000
00001000
00000100
00010000
00001000
00001000
,
00100000
00010000
01000000
00001000
00010000
00001000
00000000
00010000
,
00000100
00000000
00000010
00000000
00000001
00000000
00000000
00000000
00001000
00000010
00000100
00000000
00000001
00000000
00001000
00000000
,
00000100
00000000
00010000
00000000
00001000
00000000
00000000
00000000
00100000
00001000
00010000
00000000
00001000
00000000
00010000
00000000
,
00000010
00000100
00000001
00000000
00000010
00000100
00001000
00000000
,
00000100
00010000
00000010
00001000
00000100
00010000
00001000
00010000
,
00001000
00000000
00001000
01000000
00001000
00000000
00001000
00000000
,
00001000
00000000
00001000
00010000
00001000
00000000
00001000
00000000
,
00001000
00000000
00001000
00000100
00001000
00000000
00001000
00000000
,
01001000
00011000
00101000
00011000
,
00001000
00000000
00001000
00100000
00001000
00000000
00001000
00000000
,
00001000
00000000
00001000
01000000
00001000
00010000
00011000
00000000
,
00000000
01001000
00000000
00010100
,
00000000
00000000
00000000
00011000
00000000
01001000
00000000
01010000
00000000
01100000
00000000
10100000
,
00000000
00000000
20000000
00000000
30010000
00100000
01000000
00010000
,
00001000
00000010
00000100
00000000
00000010
00000001
00000100
00000000
,
00000010
00001000
00000100
00000001
00000100
00000010
00001000
00010000
,
01000000
00100000
00010000
00000000
10000000
00100000
00010000
00000000
,
10000000
01000000
00010000
00100000
01000000
00010000
00001000
00000010
,
00000100
00001000
00000001
00000100
00000010
00010000
00000100
00001000
,
00000001
00000100
00000010
00010000
00001000
00010000
00010100
00000000
,
00001100
00000001
00001000
00000000
00001010
00000010
00010000
00001000
,
00011000
00000000
01001000
00000000
01100000
00100000
10000000
00000000
,
10010000
00010000
00100000
00000000
01000000
10000000
00010000
01000000
,
00100000
10000000
01000000
00100000
00010000
10000000
00010000
10000000
,
10010000
00000000
01010000
01000000
00001000
00010000
00001000
00010000
,
00011000
00000000
00010100
00000000
00000100
00000010
00000100
00001000
,
00000001
00001000
00000001
00000000
00000100
00000010
00001000
00000001
,
00000100
00000010
00001000
00000000
00000010
00001000
00000010
00010000
,
00001000
00010000
00001000
00000000
00010000
01000000
00100000
00010000
,
20000000
00000000
30010000
00000000
01000000
00100000
10000000
00001000
,
00100000
00010000
01000000
01000000
00100000
10000000
01000000
00100000
,
00110000
00000000
01100000
00000000
01000000
10000000
01000000
00100000
,
00010000
01000000
00001000
00000000
00010000
00000010
00000100
00000001
,
00000011
00000000
00000000
00000000
00001100
00000000
00000000
00000000
00000100
00010000
00000100
00000000
00010000
00000000
00000000
00000000
,
00001000
01000000
00001000
00000000
00010000
00000000
00000000
00000000
00001000
00000000
01000000
00000000
00001000
00000000
00010000
00000000
,
00000100
00010000
00001000
00010000
00011000
00000000
00000000
00000000
,
00011000
00000000
00101000
00000000
01001000
00000000
00011000
00000000
00010010
00000000
00010100
00000000
,
00011000
00000000
00000000
00000000
;
