#VERSION:0.83;
#TITLE:WILD RUSH;
#SUBTITLE:;
#ARTIST:FACTOR-X;
#TITLETRANSLIT:;
#SUBTITLETRANSLIT:;
#ARTISTTRANSLIT:;
#GENRE:Dance Dance Revolution Solo 2000,Dance Dance Revolution 4th Mix;
#CREDIT:;
#MUSIC:WILD RUSH.mp3;
#BANNER:WILD RUSH.png;
#BACKGROUND:WILD RUSH-bg.png;
#CDTITLE:;
#SAMPLESTART:18.045;
#SAMPLELENGTH:12.600;
#SELECTABLE:YES;
#OFFSET:-0.045;
#BPMS:0.000=80.000
,32.000=100.000
,64.000=120.000
,96.000=140.000
,128.000=160.000
,159.000=165.000
,160.000=180.000
;
#STOPS:;
#SPEEDS:0.000=1.000=0.000=0;
#SCROLLS:0.000=1.000;
#TICKCOUNTS:0.000=0;
#TIMESIGNATURES:0.000=4=4;
#COMBOS:0.000=1;
#DISPLAYBPM:80.000:180.000;
#BGCHANGES:;
#FGCHANGES:;

//--------------- dance-single - HellKiteChaos ----------------
#NOTEDATA:;
#STEPSTYPE:dance-single;
#DESCRIPTION:HellKiteChaos;
#DIFFICULTY:Challenge;
#METER:13;
#RADARVALUES:0,0,0,0,0;
#NOTES:
0000
0000
0000
0000
,
0000
0000
0000
0000
,
0001
0000
0000
0000
0000
0000
0000
0000
1000
0000
0000
0000
0000
0000
0000
0000
0010
0000
0000
1000
0000
0000
0010
1000
0001
0000
0000
0000
0000
0000
0000
0000
,
1000
0000
0100
0000
0100
0000
0000
0000
0011
0000
0000
0000
0000
0000
0001
1000
0000
0000
0001
0000
0010
0000
0100
0000
1000
0000
0010
0000
0100
0000
0001
0000
,
0000
1001
0000
0000
1000
0000
0000
0000
0001
0100
0100
0000
0110
0000
0000
0000
,
1000
0000
0010
0000
0010
0000
0100
0001
0100
0001
0100
0000
0010
0000
0000
0000
0000
0000
1010
0000
0000
0000
0000
0000
0000
0000
0000
0000
0000
0000
0000
0000
,
0110
0000
0000
0000
0001
0000
0000
0000
1000
0010
0010
0000
0011
0000
0000
0000
,
0000
0010
0100
0000
0001
1000
0000
1100
0000
0010
0001
1000
0100
0010
0001
1000
,
0001
0000
0100
0000
0010
1000
0010
1000
0000
0001
0000
1000
0020
0000
0000
0030
,
0100
0000
0100
0000
0001
1000
0001
1000
0000
0100
0000
0010
0002
0000
1000
0003
,
1000
0100
0011
0000
0001
0100
1010
0000
,
1000
0010
0101
0000
0001
0010
1100
0000
,
1000
0000
0001
0000
0101
0000
0000
0000
1000
0000
0010
0000
0001
1000
0000
0000
,
0001
0100
1001
0000
0110
0100
1000
0110
,
0110
0001
0101
0000
0010
1000
1001
0000
,
1000
0100
1001
0000
0001
0100
0010
1000
,
0002
0000
0013
0100
0010
0100
1000
0010
,
1000
0010
0100
0001
0100
0010
1000
0001
,
0100
1000
0100
0001
0100
0010
1000
0010
,
0100
0001
0010
1000
0100
0001
1000
0100
,
0001
0010
0001
0010
1000
0010
1000
0010
,
0001
0100
1000
0010
0001
0010
0100
1000
,
0100
1000
0100
1000
0001
0010
0001
0010
,
0100
1000
0001
0100
0000
0110
1001
0000
,
1000
0000
0100
0000
0010
0001
1000
0000
0000
0000
0001
0000
0100
0001
1000
0000
,
0000
0000
0010
0000
0100
0001
0010
0000
0000
0000
0100
0000
1000
0000
0100
0000
,
0100
0000
0010
0000
0001
1000
0100
0000
0000
0000
1000
0000
0010
0100
0001
0000
,
0000
0000
1000
0000
0001
0100
0010
0000
0000
0000
0100
0000
0010
1000
0001
0000
,
0000
0000
1000
0000
0001
1000
0010
0000
0000
0000
0100
0000
0001
0010
0100
0000
,
0000
0000
1000
0000
0100
0010
0001
0000
0000
0000
1000
0000
0010
0100
0001
0000
,
1000
0100
0010
0100
0010
0001
0010
0001
,
0010
0001
0000
1100
0000
0101
0000
1001
,
0001
0000
0000
0000
0101
0000
0000
0000
0010
0000
0101
0000
0000
0000
0100
0001
,
1000
0010
0010
0000
0100
1010
0000
0010
,
0101
0001
0001
0000
0100
0011
0000
1100
,
0100
0010
0001
0100
1000
0100
0001
0010
,
0100
0000
1100
0000
0010
0101
0000
0101
,
0100
0000
0010
0000
0100
0000
0100
0000
0010
0100
0010
0100
0010
0100
0010
0100
,
0010
0000
0000
0000
0000
0000
1001
0000
0000
0000
0100
0000
0000
0000
0000
0100
0000
0000
0000
0000
0000
0000
0100
0000
,
0000
0100
0000
0100
0000
0100
0000
0000
,
1001
0001
0010
0100
1100
0000
0101
0000
,
1001
1000
0010
0100
0101
0001
0002
0000
,
1003
0100
0010
0100
1100
0100
0011
0000
,
1001
1000
0100
0010
0011
0000
0101
0000
,
0100
0000
0010
0000
0100
0000
0010
0000
1010
0000
0000
0000
0001
0100
0001
0100
,
0001
0100
0010
1000
1010
0010
0110
0000
,
0101
0000
0001
0000
1000
0000
0100
0000
0000
0000
0100
0000
0011
0000
0001
1000
,
0100
0000
0010
0101
0000
0010
1100
2002
,
0000
0000
0000
0000
,
3003
0000
0000
0000
;
