#TITLE:TRIP MACHINE (LuvMIX);
#SUBTITLE:;
#ARTIST:2MB;
#TITLETRANSLIT:;
#SUBTITLETRANSLIT:;
#ARTISTTRANSLIT:;
#GENRE:Dance Dance Revolution Solo 2000,Dance Dance Revolution 3rd Plus,Dancing Stage Euromix -Internet Ranking-;
#CREDIT:;
#MUSIC:TRIP MACHINE (LuvMIX).mp3;
#BANNER:TRIP MACHINE (LuvMIX).png;
#BACKGROUND:TRIP MACHINE (LuvMIX)-bg.png;
#CDTITLE:;
#SAMPLESTART:32.133;
#SAMPLELENGTH:10.116;
#SELECTABLE:YES;
#OFFSET:-0.288;
#BPMS:0.000=160.150;
#STOPS:;
#DISPLAYBPM:160.000;
#BGCHANGES:;
#FGCHANGES:;

//--------------- dance-single - HellKiteChaos ----------------
#NOTES:
     dance-single:
     HellKiteChaos:
     Challenge:
     13:
     0,0,0,0,0:
0000
0000
0000
0000
,
0000
0000
0000
0000
,
0000
0000
0000
0000
,
0000
0000
0000
0000
,
0000
0000
0000
0000
,
0000
0000
0100
0000
0100
0100
0100
0000
,
0100
0100
0000
0100
0100
0000
0100
0100
,
0100
0000
0100
0000
0100
0100
0100
0000
,
0100
0100
0000
0100
0100
0000
0100
0100
,
0100
0000
0100
0000
0100
0100
0100
0000
,
0100
0100
0000
0100
0100
0000
0100
0100
,
0100
0000
0100
0000
0100
0100
0100
0000
,
0100
0100
0000
0100
0100
0000
0100
0100
,
1001
0000
0000
0000
1000
0000
1000
0000
1000
0000
0000
0000
0001
0000
0001
1000
,
0001
0000
0000
0000
0100
0000
0100
0000
0100
0000
0000
0000
0010
0000
0010
0100
,
0010
0000
0000
0000
1000
0000
0100
0000
1000
0000
0000
0000
0001
0000
0100
0001
,
0100
0000
0000
0000
0001
0000
0010
0000
0001
0000
1000
0000
0001
0100
0001
0000
,
1000
0010
1000
0000
0001
0000
0001
0000
0001
0000
0000
0000
1000
0000
1000
0001
,
1000
0000
0000
0000
0100
0000
0100
0000
0100
0000
0000
0000
0010
0000
0010
0100
,
0010
0000
0000
0000
0001
0000
0010
0000
0001
0000
0000
0000
1000
0000
0010
1000
,
0010
0000
0000
0000
1000
0000
0100
0000
1000
0000
0001
0000
0100
0001
0100
0000
,
0010
1000
0010
0000
2000
0000
3200
0000
0320
0000
0230
0000
0320
0000
0032
0000
,
0203
0320
2030
3200
0320
0230
0320
0032
,
0203
0320
2030
3200
0320
0230
0320
0032
,
0203
0320
2030
3200
0320
0032
0203
0320
,
0230
0000
0310
0000
1001
0000
1000
0000
1000
0000
0000
0000
0001
0000
0100
0001
,
1000
0000
0000
0000
1001
0000
0001
0000
0001
0000
0000
0000
1000
0000
0100
1000
,
0001
0000
0000
0000
1001
0000
1000
0000
1000
0000
0000
0000
0001
0000
0010
0001
,
1000
0000
0000
0000
0010
0000
0100
0000
0010
0000
0100
0000
0001
0100
0001
0000
,
1000
0010
1000
0000
0001
0000
0001
0000
1001
0000
0000
0000
1000
0100
1000
0100
,
1000
0000
0000
0000
1000
0000
1000
0000
1001
0000
0000
0000
0001
0010
0001
0010
,
0001
0000
0000
0000
0001
0000
0001
0000
1001
0000
0000
0000
0100
0010
0100
0010
,
0100
0000
0000
0000
0010
0000
1000
0000
0001
0000
0010
0000
0100
0010
0100
0000
,
1000
0001
1000
0000
1001
0000
0000
0000
0000
0000
0000
0000
0000
0000
0000
0000
,
0000
0010
0010
0000
0100
0100
0000
1000
,
1000
0000
1001
0000
0000
0000
0000
0010
,
0000
0010
0100
0001
0000
1000
0100
0000
,
0011
0000
0000
0010
0000
0010
0000
0010
,
0000
0010
0000
0010
0000
0010
0000
0010
,
0001
0100
0110
0000
0100
0000
0100
0000
,
0100
0100
0100
0100
,
0100
0000
0000
0000
0010
0000
1000
0000
0000
0000
0010
0000
1000
0000
0001
1000
,
0001
0000
0010
0001
0010
0001
0010
1100
,
0000
0000
0101
0000
0001
0000
0100
0000
0000
0000
0001
0000
0100
0000
0001
1000
,
0001
0000
1000
0100
0001
0010
1000
1000
,
1000
1000
1100
0000
0100
0100
0101
0000
,
0100
1100
0000
0100
0101
0000
0100
0100
,
0110
0000
1100
0000
0100
0100
0101
0000
,
0100
0110
0000
0100
0101
0000
0100
0100
,
1100
0000
0101
0000
0100
0100
1100
0000
,
0100
0110
0000
0100
0110
0000
0100
0100
,
1100
0000
0110
0000
0100
0100
0101
0000
,
0100
0110
0000
0100
0101
0000
0100
0100
,
0110
0000
0010
0100
0010
0100
0001
1000
,
0001
0000
1000
0010
1000
0000
0001
0100
0001
0000
1000
0100
1000
0000
0100
0000
,
0001
0000
0100
0000
1000
0000
0001
0000
0001
0000
0100
0000
0010
0000
1000
0010
,
1000
0000
0001
0010
0001
0000
1000
0100
1000
0000
0001
0000
0010
0000
1000
0000
,
0010
0000
0001
0000
1000
0000
1000
0000
0001
0000
0100
0000
0010
0000
1000
0010
,
1000
0000
0001
0010
0001
0000
0100
0001
0100
0000
1000
0000
0100
0000
0001
0000
,
1000
0100
0010
0001
0001
0100
0010
1000
,
1000
0100
0000
0100
0000
0100
0100
0100
,
0100
0100
0200
0000
0000
0000
0000
0000
,
0000
0000
0000
0000
,
0000
0000
0000
0000
,
0000
0000
0000
0000
,
0000
0300
0000
0000
;
