#TITLE:The Least 100sec;
#SUBTITLE:;
#ARTIST:Hirofumi Sasaki;
#TITLETRANSLIT:;
#SUBTITLETRANSLIT:;
#ARTISTTRANSLIT:;
#GENRE:;
#CREDIT:;
#MUSIC:The Least 100sec.mp3;
#BANNER:The Least 100sec.png;
#BACKGROUND:The Least 100sec-bg.png;
#CDTITLE:;
#SAMPLESTART:71.037;
#SAMPLELENGTH:8.422;
#SELECTABLE:YES;
#OFFSET:-0.092;
#BPMS:0.000=263.500
,80.000=255.600
,86.000=247.600
,92.000=259.000
,96.000=262.000
,100.000=264.000
,103.000=263.700
,123.000=263.600
,159.000=263.200
,175.000=263.700
,199.000=263.600
,231.000=263.900
,247.000=263.600
,398.000=258.100
,405.000=224.400
,406.000=201.400
,408.000=200.400
,412.000=270.400
;
#STOPS:;
#DISPLAYBPM:263.000;
#BGCHANGES:;
#FGCHANGES:;

//--------------- dance-single - HellKiteChaos ----------------
#NOTES:
     dance-single:
     HellKiteChaos:
     Challenge:
     16:
     0,0,0,0,0:
0000
0000
0000
0000
,
0000
0000
0000
0000
,
0000
0000
0000
0000
,
0000
0000
0000
0000
,
0000
0000
0000
0000
,
0000
0000
0000
0000
,
0000
0000
0000
0000
,
0000
0000
0000
0000
,
1001
0000
0001
0100
0000
0100
0010
0000
,
0100
0010
1000
0001
,
0100
0001
1000
0010
0100
0010
0100
0001
,
1000
0100
0010
0001
0010
0100
1000
0010
,
0100
0001
0100
0010
0000
1010
0000
0110
,
0000
0101
0000
1001
0000
1000
0100
1000
,
0010
1000
0001
0010
0001
0100
0010
1000
,
0100
0110
0000
0000
,
0011
0000
0001
1000
0000
1000
0100
0000
,
0010
0011
0001
0100
,
1010
0000
1000
0010
0000
0010
0100
0000
,
0101
0001
1000
0100
,
0010
0000
0000
0011
0000
0000
1100
0000
,
0000
1001
0000
0000
0101
0000
1000
1100
,
0000
0000
0001
0000
0100
0101
0000
0000
,
1000
0000
0010
0100
0001
1000
0010
0100
,
0001
0010
0100
0010
0100
1000
0001
0100
,
0101
0000
0000
1010
0000
0000
0010
0100
,
0010
0100
0001
0010
0100
1000
0001
0010
,
0001
0010
0100
1000
0010
0100
0001
1000
,
0001
1000
0001
0010
0001
1000
0100
1000
,
0001
0100
0010
1000
0001
0000
2002
0000
,
0000
3003
0000
0101
,
0110
0000
0101
0000
1010
0000
0101
0100
,
0001
0100
0010
1000
0001
1000
0001
0010
,
0100
1000
0001
1000
0001
0100
0010
0000
,
0000
1000
0001
0000
0000
1000
0100
0000
,
0000
0000
0000
0100
,
0000
0100
0010
0000
0000
0010
0001
0000
,
0000
0001
1000
0000
0000
1000
0010
0000
,
0000
0010
0100
0000
0000
0100
0001
0000
,
0000
0001
1000
0000
0000
0001
1001
0000
,
0000
1100
0000
0100
0010
0001
1000
0100
,
0010
0001
1000
0100
0010
0001
0011
0000
,
0000
0000
0000
0101
0000
0000
0000
0000
0000
0001
0000
0000
0100
0000
0000
0010
0000
0000
1000
0000
0000
0000
0001
0000
,
0000
0100
0000
0010
0000
1000
0000
0100
0000
1000
0000
0000
,
0000
0001
0100
0001
0000
1000
0010
1000
,
0000
0001
0010
0001
0000
1000
0100
1000
,
0000
0001
0010
0100
0000
1000
0001
0100
,
0000
0010
1000
0001
0100
0010
0100
0000
,
0001
0100
0000
0010
0100
0000
0001
0100
,
0000
0010
1000
0001
0010
0100
1000
0000
,
0001
0100
0000
0100
0001
0000
1000
0000
,
0010
1000
0000
1000
0010
0000
0100
0000
,
0001
1000
0000
1000
0001
0000
0010
0000
,
0100
1000
0000
1000
0100
0000
0010
0000
,
0001
0100
0000
0010
1000
0000
0001
0100
,
0001
0100
0000
0010
0100
0001
1000
0100
,
1000
0100
0000
0010
0001
0000
1000
0100
,
1000
0001
0000
0100
0001
0000
1000
0000
,
0001
0101
0000
1000
1100
0000
0001
0101
,
0000
1000
1100
0000
0001
0101
0000
1000
,
1100
0000
0001
0100
0001
0100
0001
0100
,
0010
1000
0001
0100
0010
1000
0001
0000
,
0010
0100
0000
1000
0100
1000
0001
0000
,
0100
0010
0000
0100
0001
0100
0001
0000
,
1000
0100
0000
0010
0001
0010
0100
0000
,
0010
0001
0000
0100
0010
0100
0001
0000
,
1000
0001
0000
0100
0010
0100
0001
0010
,
0001
0010
0000
0100
1000
0100
1000
0001
,
1000
0001
0000
0100
0010
0100
0001
0000
,
1000
0100
0000
0010
0001
0000
0100
0001
,
0100
0001
0100
0001
0100
0001
1000
0010
,
1000
0010
1000
0010
1000
0010
0100
0001
,
1000
0100
0010
0001
0100
0010
1000
0100
,
0001
0100
1000
0010
0100
0001
0010
0100
,
0010
0100
0010
0100
0010
0100
1000
0001
,
1000
0001
1000
0001
1000
0001
0100
0010
,
1000
0100
0010
0001
0100
1000
0100
0001
,
0010
0100
1000
0001
1000
0001
1001
0000
,
1000
0010
0000
0010
0100
0000
0010
0000
,
0100
0000
0001
0000
1000
0000
0010
1000
,
0001
0100
0010
0100
0010
1000
0001
0010
,
0100
1000
0100
0010
0001
0100
0010
1000
,
0010
0100
0000
0101
0000
0110
0000
1010
,
0000
1001
0000
0001
0010
0001
0100
0001
,
1000
0100
1000
0010
0100
0001
0010
0000
,
0110
0000
0000
1100
,
1000
0001
0000
0001
0010
0000
0100
0000
,
1100
1000
0010
0101
,
0001
0100
0000
0100
0010
0000
1010
0000
,
1000
0001
0010
0100
,
0000
1100
0000
0000
0011
0000
0000
1001
,
0000
0000
1010
0000
0001
0011
0000
0000
,
1000
0000
0010
1010
0000
0000
0001
0000
,
0100
0010
1000
0001
0100
0010
1000
0100
,
0010
0100
0010
0001
1000
0010
1010
0000
,
0000
0101
0000
0000
0100
0010
0100
0010
,
1000
0100
0010
0001
1000
0100
1000
0100
,
0010
0001
0100
0010
1000
0001
1000
0001
,
1000
0100
1000
0001
0010
0001
1000
0010
,
0100
0001
1000
0000
1001
0000
0220
0000
,
0000
0000
0000
0000
,
0330
0000
0000
0000
0000
0000
0000
0000
0001
0100
0001
0100
0001
0000
0000
0000
,
1000
0100
1000
0100
1000
0000
0000
0000
0001
0010
0001
0010
0001
0000
0000
0000
,
1001
0000
1001
0000
1001
0000
0000
2002
,
0000
0000
0000
0000
,
0000
0000
0000
0000
,
3003
0000
0000
0000
;
