#TITLE:TEMPLE OF LOVE;
#SUBTITLE:;
#ARTIST:E-ROTIC;
#TITLETRANSLIT:;
#SUBTITLETRANSLIT:;
#ARTISTTRANSLIT:;
#GENRE:;
#CREDIT:;
#MUSIC:TEMPLE OF LOVE.mp3;
#BANNER:TEMPLE OF LOVE.png;
#BACKGROUND:TEMPLE OF LOVE-bg.png;
#CDTITLE:;
#SAMPLESTART:0.000;
#SAMPLELENGTH:0.000;
#SELECTABLE:YES;
#OFFSET:-0.046;
#BPMS:0.000=142.000;
#STOPS:;
#DISPLAYBPM:142.000;
#BGCHANGES:;
#FGCHANGES:;

//--------------- dance-single - HellKiteChaos ----------------
#NOTES:
     dance-single:
     HellKiteChaos:
     Challenge:
     12:
     0,0,0,0,0:
0000
0000
0000
0000
,
0000
0000
0000
0000
,
0000
0000
0000
0000
,
0000
0000
0000
0000
,
1000
0000
0001
0000
0100
0010
1000
0000
,
0001
0010
0100
0010
0100
1000
0001
0000
,
1000
0000
0010
0000
0100
0010
1000
0000
,
0001
0010
0100
1000
0001
0010
0001
1000
,
0100
0000
0010
0000
0001
1000
0100
0000
,
1000
0010
0100
0010
0100
0001
1000
0000
,
0001
1000
0100
1000
0010
0100
0010
0100
,
0001
0010
1000
0001
0100
1000
0001
0000
,
2002
0000
3003
0000
,
0001
0000
0000
0000
1000
0000
0100
0000
0010
0000
0100
0000
1000
0000
0001
1000
,
0010
0000
0000
0000
0100
0000
0010
0000
1000
0000
0010
0000
0100
0000
0001
1000
,
0100
0000
1000
0100
0010
0001
1000
0010
,
0000
0210
0000
0302
0000
0023
0100
0130
,
1000
0000
0100
0000
0010
0000
0001
0000
1000
0000
0010
0000
0100
0000
0010
0100
,
0001
0000
0000
0000
0010
0000
0100
0000
1000
0000
0100
0000
0010
0000
0001
1000
,
0010
0000
0000
0000
0100
0000
1000
0000
0100
0000
0010
0000
0100
0000
0001
1000
,
0010
0000
1000
0001
0000
0000
0001
0100
0000
0000
0100
0000
0010
0000
0100
0000
,
2001
0000
0010
3020
0000
0230
0000
0301
,
0100
0010
1000
0100
0010
0001
1000
0010
,
0200
0000
0001
0302
0000
0023
0000
0130
,
1000
0010
0001
0010
1000
0001
0100
0010
,
2000
0000
0100
3200
0000
0320
0000
0031
,
0010
1000
0010
0100
1000
0001
0100
0000
,
0020
0000
0031
0002
0000
0023
0000
1030
,
0001
0100
0010
1000
0100
0010
0001
0000
,
1001
0000
0000
0000
1100
0000
0100
0000
0010
0000
0001
0000
0010
0000
0100
1000
,
0001
0100
0010
0010
0010
0010
0110
0000
,
1001
0000
0000
0000
1000
0000
0010
0000
0100
0000
0010
0000
0100
0000
0001
1000
,
0100
0000
0010
0001
0010
0000
0100
0000
0100
0000
0010
0000
0100
0000
0100
0000
,
1001
0000
0011
0000
1100
0100
0010
0000
,
0001
0010
1000
0010
0100
1000
0001
0100
,
0010
0010
0010
0010
1000
1000
1000
1000
,
0001
0100
0010
1000
0001
0100
0010
0100
,
2002
0000
3003
0000
,
1000
0000
0000
0000
0001
0000
0010
0000
0100
0000
0010
0000
0001
0000
1000
0001
,
0100
0000
0000
0000
0010
0000
0100
0000
0001
0000
0100
0000
0010
0000
1000
0001
,
0010
0000
0001
0010
0100
1000
0001
0100
,
0000
0120
0000
2030
0000
3200
0010
0310
,
0001
0000
0010
0000
0100
0000
1000
0000
0001
0000
0100
0000
0010
0000
0100
0010
,
1000
0000
0000
0000
0100
0000
0010
0000
0001
0000
0010
0000
0100
0000
1000
0001
,
0100
0000
0000
0000
0010
0000
0001
0000
0010
0000
0100
0000
0010
0000
1000
0001
,
0100
0000
0001
1000
0000
0000
1000
0010
0000
0000
0010
0000
0100
0000
0010
0000
,
1002
0000
0100
0203
0000
0320
0000
1030
,
0010
0100
0001
0010
0100
1000
0001
0100
,
0020
0000
1000
2030
0000
3200
0000
0310
,
0001
0100
1000
0100
0001
1000
0010
0100
,
0002
0000
0010
0023
0000
0230
0000
1300
,
0100
0001
0100
0010
0001
1000
0010
0000
,
0200
0000
1300
2000
0000
3200
0000
0301
,
1000
0010
0100
0001
0010
0100
1000
0000
,
2002
0000
0000
0000
,
0000
0000
0000
0000
,
3003
0000
0000
0000
;
