#VERSION:0.83;
#TITLE:SP-TRIP MACHINE -JUNGLE MIX-;
#SUBTITLE:;
#ARTIST:DE-SIRE;
#TITLETRANSLIT:;
#SUBTITLETRANSLIT:;
#ARTISTTRANSLIT:;
#GENRE:;
#CREDIT:;
#MUSIC:SP-TRIP MACHINE -JUNGLE MIX-.mp3;
#BANNER:SP-TRIP MACHINE -JUNGLE MIX-.png;
#BACKGROUND:SP-TRIP MACHINE -JUNGLE MIX--bg.png;
#CDTITLE:;
#SAMPLESTART:0.000;
#SAMPLELENGTH:0.000;
#SELECTABLE:YES;
#OFFSET:-0.038;
#BPMS:0.000=160.189;
#STOPS:32.000=0.630
,44.000=0.630
,56.000=0.630
,68.000=0.630
,80.000=0.680
;
#WARPS:20.000=12.000,
32.250=11.708,
44.250=11.708,
56.250=11.708,
68.250=11.708,
80.250=11.708
;
#SPEEDS:0.000=1.000=0.000=0;
#SCROLLS:0.000=1.000,
32.000=0.500,
92.000=1.000
;
#TICKCOUNTS:0.000=0;
#TIMESIGNATURES:0.000=4=4;
#COMBOS:0.000=1;
#BGCHANGES:;
#FGCHANGES:;

//--------------- dance-single - HellKiteChaos ----------------
#NOTEDATA:;
#STEPSTYPE:dance-single;
#DESCRIPTION:HellKiteChaos;
#DIFFICULTY:Challenge;
#METER:15;
#RADARVALUES:0,0,0,0,0;
#NOTES:
0000
0000
0000
0000
,
0000
0000
0000
0000
,
0000
0000
0000
0000
,
0000
0000
0000
0000
,
0000
0000
0000
0000
,
0000
0000
0000
0000
,
0000
0000
0000
0000
,
0000
0000
0000
0000
,
0000
0000
MMMM
M000
M000
M000
M000
MMM0
000M
000M
000M
M00M
0MM0
0000
0000
0000
,
0000
0000
0000
0000
,
0000
0000
0000
0000
,
0000
0000
M00M
M00M
M00M
M00M
MMMM
000M
000M
000M
000M
000M
0000
0000
0000
0000
,
0000
0000
0000
0000
,
0000
0000
0000
0000
,
0000
0000
0MM0
M00M
M00M
000M
00M0
000M
M00M
M00M
0MM0
0000
0000
0000
0000
0000
,
0000
0000
0000
0000
,
0000
0000
0000
0000
,
0000
0000
0MM0
M00M
M00M
000M
00MM
0M00
M000
M000
MMMM
0000
0000
0000
0000
0000
,
0000
0000
0000
0000
,
0000
0000
0000
0000
,
0000
0000
00M0
0MM0
M0M0
00M0
00M0
00M0
00M0
00M0
MMMM
0000
0000
0000
0000
0000
,
0000
0000
0000
0000
,
0000
0000
0000
0000
,
0000
0000
2100
3002
,
0103
0000
0010
1000
0000
0000
0010
0100
0000
0000
0001
1000
0000
0000
0001
0010
,
0100
1000
0100
0100
1200
0001
0302
0000
,
0103
0000
0100
1000
0000
0000
0100
0001
0000
0000
0100
1000
0000
0000
0010
1000
,
0001
0100
0110
0010
1020
0000
0230
0000
,
0310
0000
0010
0001
0000
0000
0010
1000
0000
0000
0010
0001
0000
0000
0010
1000
,
0001
0000
1000
0001
0010
0000
0100
0000
0210
0000
1000
0000
1300
0000
0000
0000
,
0001
0000
0100
1000
0000
0000
0100
0001
0000
0000
0100
1000
0000
0000
0100
0001
,
1000
0001
1000
0000
1000
0100
0100
0010
,
0000
0000
1020
0000
0001
0000
0031
0000
1000
0000
1000
0000
0001
0000
0100
0010
,
1000
0000
0001
0100
0010
0000
1000
0000
1100
0000
0010
0000
0010
0000
0101
0000
,
0010
0000
0010
0000
1000
0000
0001
0000
0000
0000
1000
0100
0000
0000
0001
0100
,
0000
0000
1000
0100
0000
0000
0101
0000
1100
0000
1000
0000
1000
0000
0012
0000
,
0000
0000
0103
0000
1000
0000
0100
0000
0001
0000
0100
0000
0100
0000
0010
1000
,
0001
0000
1000
0100
0001
0000
0100
1000
0001
0000
0100
0000
0010
0000
0101
0000
,
0000
1100
0001
0001
0110
1000
1000
1000
,
1000
0000
1000
0000
1000
0000
1000
0000
0101
0000
0010
0000
1000
0000
0100
0010
,
0100
0010
0100
0000
1000
0000
1001
0000
0001
0000
0100
0000
1000
0000
0020
0000
,
0000
0100
0130
0100
0001
0010
1100
0000
,
0010
0101
0000
0100
0010
0100
1000
0001
,
0010
1000
0001
0010
0100
0010
1100
0000
,
0001
0100
0000
1010
0000
0101
0100
0100
,
0001
1000
0000
0100
0010
0001
1100
0000
,
0000
0000
0011
0000
0001
0000
0000
0000
1000
0000
0001
0100
0000
1000
0100
1000
,
0100
1000
0100
1000
0200
0000
0300
0000
1100
0000
0100
0000
0101
0000
0010
0000
,
0101
0000
0100
0000
0100
0000
0001
1000
0001
0000
1010
0000
0100
0000
0011
0000
,
0100
1001
0100
0001
0011
0100
1010
0100
,
1010
0000
0010
0000
0010
0000
1000
0001
1000
0000
0101
0000
0010
0000
1100
0000
,
0010
0010
0010
0010
1010
0010
0011
0100
,
0011
0000
0010
0000
0010
0000
0001
1000
0001
0000
1100
0000
0010
0000
0101
0000
,
0010
1001
0010
0001
0101
0100
1100
0010
,
1100
0000
0100
0000
0100
0000
1000
0001
1000
0000
0001
0000
0001
0000
0001
0000
,
0001
0001
0001
0001
1000
0100
0100
0101
,
0000
0000
1000
0000
0010
0000
1000
0000
0001
0000
0100
0000
0010
0000
1000
0001
,
0010
0000
1000
0010
0001
0000
1000
0000
0101
0000
0010
0000
0010
0000
1100
0000
,
0000
0000
0001
0010
0100
0000
1000
0000
0001
0000
0011
0000
0100
0000
1010
0000
,
0100
0011
1000
1000
0110
0100
0010
0001
,
1000
0000
0001
0000
0001
0000
0100
0000
0010
0000
0110
0000
0000
0000
0100
0010
,
1000
0000
0001
0010
1000
0000
0010
0001
1000
0000
0001
0000
0011
0000
0000
0000
,
1100
0010
0101
0000
1000
0010
0010
0010
,
0010
0010
0010
0010
0110
0001
1000
0100
,
0010
0000
0001
0010
1000
0000
0001
0000
1100
0000
0010
0000
0010
0000
0010
0000
,
0101
0000
0001
0000
0101
0000
0100
0000
1010
0000
0010
0000
0010
0000
1000
0010
,
0001
0000
0001
0010
1000
0000
0001
0000
1000
0000
1100
0000
0100
0000
1100
0000
,
0100
1100
0010
0001
0101
0000
0010
1100
,
0000
0010
0010
0100
0001
1000
0101
0010
,
0101
1000
0101
0010
1100
0001
0200
0000
,
0310
0000
0010
0100
0001
0000
0010
0100
1000
0000
0001
0000
0100
0000
0100
0000
,
0010
1000
0100
0110
0000
2002
0000
0000
,
0000
0000
0000
0000
,
3003
0000
0000
0000
;
