#TITLE:SEXY PLANET;
#SUBTITLE:;
#ARTIST:Crystal Aliens;
#TITLETRANSLIT:;
#SUBTITLETRANSLIT:;
#ARTISTTRANSLIT:;
#GENRE:Dance Dance Revolution Solo 2000,Dance Dance Revolution 4th Plus;
#CREDIT:;
#MUSIC:SEXY PLANET.mp3;
#BANNER:SEXY PLANET.png;
#BACKGROUND:SEXY PLANET-bg.png;
#CDTITLE:;
#SAMPLESTART:53.480;
#SAMPLELENGTH:15.813;
#SELECTABLE:YES;
#OFFSET:-0.049;
#BPMS:0.000=180.233;
#STOPS:;
#DISPLAYBPM:180.000;
#BGCHANGES:;
#FGCHANGES:;

//--------------- dance-single - HellKiteChaos ----------------
#NOTES:
     dance-single:
     HellKiteChaos:
     Challenge:
     13:
     0,0,0,0,0:
0000
0000
0000
0000
,
0000
0000
0000
0000
,
0010
0010
0100
0010
0000
0100
0001
0000
,
0000
0101
0000
1010
0000
1100
0000
0000
,
0100
0000
0010
0000
0010
0000
0001
0000
0000
0000
1000
0000
0010
0100
0010
0000
,
0100
0100
0001
2000
0000
0000
3200
0000
,
0310
0000
0001
0001
0101
0000
1010
0000
,
1000
0001
0010
0000
0100
0000
0100
0000
1000
0000
0000
0000
0001
0000
0000
0000
,
2100
0000
0001
3001
0000
0100
0001
0000
,
0102
0000
1000
1003
0000
0100
1000
0000
,
2000
0010
3010
0100
0001
0100
0010
1000
,
0001
0011
0001
1001
1000
1100
0100
0010
,
0002
0100
0103
0010
1000
0000
0101
0000
,
2000
0010
3010
0100
0001
0000
1001
0000
,
1000
1000
0100
0010
0001
1000
0001
0000
,
0101
0101
1010
1010
,
1010
0000
1000
0010
0001
0000
1000
0000
,
0011
0000
0001
0010
1000
0000
0001
0000
,
1000
0100
0002
0000
1003
0010
0002
0000
,
1003
0100
0002
0000
1003
0100
1001
0000
,
1000
0000
0001
0100
0010
0000
0110
0000
,
1001
0000
1000
0100
0010
0000
0001
0000
,
0100
0010
2000
0000
3100
0010
0002
0000
,
0103
0010
2000
0000
3100
0010
0001
0000
,
1000
0010
0000
0100
0000
0010
0000
1000
,
0000
0001
0000
0010
0100
1000
0001
0100
,
0010
0100
0000
0010
0000
1000
0000
0001
,
0000
0100
0000
0010
1000
0001
0100
1000
,
0100
0001
0000
0010
0000
0001
0000
0010
,
0000
0100
0000
1000
0100
1000
0001
0100
,
0000
0010
0000
1000
0000
0010
0000
0100
,
0000
0001
1000
0000
1001
0000
0000
0000
,
2100
0000
3001
0100
0000
0010
1000
0000
,
0000
0010
0100
0001
0010
0100
1000
0000
,
0011
0001
1000
0001
0010
0100
1000
0000
,
0000
1100
0000
0101
0000
2010
0000
0000
,
3002
0000
1003
0100
0000
0010
0001
0000
,
0000
1000
0100
0010
0100
1000
0001
0000
,
0100
0010
0100
0100
0000
0010
1001
0000
,
0010
1000
0001
0000
0100
0000
0001
0000
0100
0000
0010
0000
0200
0000
0000
0000
,
0300
0101
0101
0101
0101
0000
0000
1100
,
1100
1100
2100
0000
3001
0000
0002
0100
,
1003
0010
1000
0010
0100
0001
0000
0010
,
0100
0000
1100
1000
0001
1000
0100
1000
,
0001
0010
0110
0100
1100
1000
0000
0001
,
0001
0000
0012
0000
1003
0000
2000
0010
,
3001
0100
0001
0100
0010
1000
0000
0100
,
0010
0000
0011
0001
1000
0001
0010
0001
,
1000
0100
1100
1000
1001
0000
0101
0001
,
1001
0000
2000
0010
0010
3020
0000
0130
,
0100
0000
0002
0010
0010
0023
0000
0100
,
0130
0000
1000
0100
0002
0000
1003
0100
,
0002
0000
1003
0010
0002
0000
1003
0100
,
0001
0000
2000
0010
0010
3020
0000
0100
,
0130
0000
0002
0010
0010
0023
0000
0100
,
0130
0000
0001
0100
2000
0000
3001
0100
,
2000
0000
3001
0010
2000
0000
3001
0100
,
0020
0000
1030
0100
0002
0000
1003
0100
,
0020
0000
0030
0002
2000
0000
0000
0000
,
0000
0000
0000
0000
,
0000
0000
3003
0000
;
