#VERSION:0.83;
#TITLE:R3;
#SUBTITLE:;
#ARTIST:tiger YAMATO;
#TITLETRANSLIT:;
#SUBTITLETRANSLIT:;
#ARTISTTRANSLIT:;
#GENRE:;
#ORIGIN:;
#CREDIT:;
#BANNER:R3.png;
#BACKGROUND:R3-bg.png;
#PREVIEWVID:;
#JACKET:R3-jacket.png;
#CDIMAGE:;
#DISCIMAGE:;
#LYRICSPATH:;
#CDTITLE:;
#MUSIC:R3.ogg;
#OFFSET:0.000000;
#SAMPLESTART:55.016998;
#SAMPLELENGTH:15.000000;
#SELECTABLE:YES;
#DISPLAYBPM:157.000000;
#BPMS:0.000=157.041;
#STOPS:;
#DELAYS:;
#WARPS:;
#TIMESIGNATURES:0.000=4=4;
#TICKCOUNTS:0.000=4;
#COMBOS:0.000=1;
#SPEEDS:0.000=1.000=0.000=0;
#SCROLLS:0.000=1.000;
#FAKES:;
#LABELS:0.000=Song Start;
#BGCHANGES:;
#KEYSOUNDS:;
#ATTACKS:
;

//---------------dance-single - ----------------
#NOTEDATA:;
#CHARTNAME:;
#STEPSTYPE:dance-single;
#DESCRIPTION:;
#CHARTSTYLE:;
#DIFFICULTY:Challenge;
#METER:12;
#RADARVALUES:0.579904,0.576636,0.096939,0.133291,0.205996,335.000000,327.000000,8.000000,11.000000,0.000000,0.000000,0.000000,0.000000,0.000000,0.579904,0.576636,0.096939,0.133291,0.205996,335.000000,327.000000,8.000000,11.000000,0.000000,0.000000,0.000000,0.000000,0.000000;
#CREDIT:;
#DISPLAYBPM:157.000000;
#NOTES:
// measure 0
0000
0000
0000
0000
,  // measure 1
0000
0000
0000
0000
,  // measure 2
0000
0000
0000
0000
,  // measure 3
1001
0000
0000
0000
0000
0110
0000
0000
,  // measure 4
1001
0000
0000
0000
,  // measure 5
0002
0000
0000
0003
,  // measure 6
1000
1000
1000
1000
,  // measure 7
0001
0000
0000
0100
0000
0000
0001
0000
0000
0100
0000
0000
0001
0000
0100
0000
,  // measure 8
0010
0000
0000
1000
0000
0000
0010
0000
0000
1000
0000
0000
0010
0000
1000
0000
,  // measure 9
0100
0000
0000
1000
0000
0000
0100
0000
0000
1000
0000
0000
0100
0000
0010
0000
,  // measure 10
0001
0000
0000
0010
0000
0000
0001
0000
0000
0010
0000
0000
0001
0000
0010
0000
,  // measure 11
0100
0000
0000
1000
0000
0000
0010
0000
0000
0100
0000
0000
0001
0000
0001
0000
,  // measure 12
0100
0000
0000
0010
0000
0000
1000
0000
0000
0001
0000
0000
1000
0000
1000
0000
,  // measure 13
0100
0000
0000
1000
0000
0000
0010
0000
0000
0100
0000
0000
0010
0000
0010
0000
,  // measure 14
0100
0000
0000
0001
0000
0000
1000
0000
0000
0100
0000
0000
0010
0000
0001
0000
,  // measure 15
0000
1000
0001
0000
0000
1000
0001
0000
,  // measure 16
1000
0100
1000
0010
0210
0000
0310
0100
,  // measure 17
0001
0000
1000
0000
0002
0000
0000
0000
0100
0000
0000
0000
1000
0003
0000
0000
,  // measure 18
1000
0001
0100
0010
0110
0000
0100
0010
,  // measure 19
1000
0001
2000
0000
0100
0000
3001
0000
,  // measure 20
1000
0100
0010
0001
0100
0010
0100
0001
,  // measure 21
0010
0100
2000
0000
0001
0000
0010
0000
,  // measure 22
3001
1000
0100
0010
0001
0100
0010
0100
,  // measure 23
0001
1000
0002
0000
0100
0000
1003
0000
,  // measure 24
0001
0100
1000
0100
0001
0100
1000
0100
,  // measure 25
0001
0100
1000
0100
0001
0010
1001
0000
,  // measure 26
1000
0100
0001
0100
1000
0100
0001
0100
,  // measure 27
1000
0001
1000
0001
0100
0010
0100
0010
,  // measure 28
1000
0010
0001
0010
1000
0010
0001
0010
,  // measure 29
1000
0010
0001
0010
1000
0100
1001
0000
,  // measure 30
0001
0010
1000
0010
0001
0010
1000
0010
,  // measure 31
0001
0100
0001
0100
0010
1000
0010
1000
,  // measure 32
0001
0200
0000
0320
0000
1030
0001
2000
,  // measure 33
0000
3200
0000
0320
0000
0031
1000
0001
,  // measure 34
0000
0000
1000
0000
0000
0000
1000
0000
0000
0000
0001
0100
0000
0000
0001
0100
,  // measure 35
0000
1000
0000
0001
0100
0000
1001
0000
,  // measure 36
0001
0000
0100
0001
0000
0100
0001
0000
0000
0000
0100
0000
0001
0000
0010
0000
,  // measure 37
0100
0000
1000
0100
0000
1000
0100
0000
0000
0000
1000
0000
0010
0000
0100
0000
,  // measure 38
0001
0000
1000
0001
0000
1000
0001
0000
0000
0000
1000
0000
0010
0000
0100
0000
,  // measure 39
0001
0000
0010
0001
0000
0010
0001
0000
0000
0000
0010
0000
0001
0000
0100
0000
,  // measure 40
0010
0000
1000
0010
0000
1000
0001
0000
0000
0000
1000
0000
0100
0000
1000
0000
,  // measure 41
0010
0000
0100
0001
0000
0100
0010
0000
0000
0000
1000
0000
0010
0000
0100
0000
,  // measure 42
0001
0000
0100
0001
0000
1000
0001
0000
0000
0000
1000
0000
0100
0000
0010
0000
,  // measure 43
0001
0000
0010
0001
0000
0100
0001
0000
0000
0000
0100
0000
0001
0000
1000
0000
,  // measure 44
0010
0100
0001
0100
0010
1000
0100
0010
,  // measure 45
0001
1000
0010
0100
0001
1000
0001
0001
,  // measure 46
1000
1000
0100
1000
0010
0100
0001
0010
,  // measure 47
0100
0010
0001
1000
0010
0100
0001
1000
,  // measure 48
0010
0010
0100
0001
0100
0010
1000
0001
,  // measure 49
0010
0100
0010
0001
1000
0001
0100
0100
,  // measure 50
0010
0010
1000
0100
0010
0001
1000
0010
,  // measure 51
0100
0100
0001
0100
0010
0010
1000
0001
,  // measure 52
0000
1000
0001
0010
0000
0001
1000
0010
;
