#TITLE:ONLY YOU;
#SUBTITLE:;
#ARTIST:CAPTAIN JACK;
#TITLETRANSLIT:;
#SUBTITLETRANSLIT:;
#ARTISTTRANSLIT:;
#GENRE:;
#CREDIT:;
#MUSIC:ONLY YOU.mp3;
#BANNER:ONLY YOU.png;
#BACKGROUND:ONLY YOU-bg.png;
#CDTITLE:;
#SAMPLESTART:21.034;
#SAMPLELENGTH:19.030;
#SELECTABLE:YES;
#OFFSET:-0.066;
#BPMS:0.000=186.024;
#STOPS:;
#BGCHANGES:;
#FGCHANGES:;

//--------------- dance-single - HellKiteChaos ----------------
#NOTES:
     dance-single:
     HellKiteChaos:
     Challenge:
     12:
     0,0,0,0,0:
0000
0000
0000
0000
,
0000
0000
0000
0000
,
0000
0000
0000
0000
,
0000
0000
0000
0000
,
0000
0000
0000
0000
,
0000
0000
0000
0000
,
0000
0000
0000
0000
,
0000
0000
0000
0000
,
0000
0000
0000
1000
,
0100
0000
0000
1000
0000
0000
0100
0000
1000
0001
0000
0000
,
0100
0001
0100
0001
,
1000
0000
0000
0001
0000
0000
0100
0000
0001
1000
0000
0000
,
0010
1000
0010
0100
,
0100
0000
0000
0010
0000
0000
0010
0000
1000
0001
0000
0000
,
0010
0000
0000
0001
0000
0000
0010
0000
0000
0001
0000
1000
,
0001
0000
0000
0000
0000
0100
0010
0000
1000
0001
0000
0000
,
0000
0000
0000
1000
,
0100
0000
1000
0001
0000
0000
0100
0000
0001
1000
0000
0000
,
0100
0010
0100
1000
,
0100
0000
1000
0001
0000
0000
0100
0000
0001
1000
0000
0000
,
0100
0000
0010
0001
0000
0010
0001
0000
0010
0001
0000
0000
,
1000
0000
0010
0100
0000
0000
0001
0000
0010
0100
0000
0000
,
1000
0001
0100
0010
,
1010
0100
0101
0001
,
0011
1001
1001
1000
,
0010
0000
1000
0001
0000
0000
0010
0000
0001
1000
0000
0000
,
0010
0000
0100
0001
0000
0100
0001
0000
0100
0001
0000
0000
,
0100
0000
0001
1000
0000
0000
0010
0000
1000
0001
0000
0000
,
1000
0000
0001
0010
0000
0001
0010
0000
0001
0010
0000
0000
,
0100
0000
1000
0001
0000
0000
0100
0000
0001
1000
0000
0000
,
0100
0010
0001
1000
,
1001
0000
0000
0000
0000
0001
1000
0000
0010
0200
0000
0000
,
0000
0000
0000
0000
0000
0000
0000
0000
0000
0301
0000
0001
,
0100
0000
0100
0001
0000
0001
0100
0000
0100
0001
0000
0000
,
0001
0000
0000
1001
0000
0000
1001
0000
0000
1000
0000
1000
,
0100
0000
0100
1000
0000
1000
0100
0000
0100
1000
0000
0000
,
1000
0000
0000
1001
0000
0000
1001
0000
0000
0001
0000
0001
,
0010
0000
0010
0100
0000
0100
1000
0000
1000
0001
0000
0000
,
0001
0000
0000
1001
0000
0000
1001
0000
0000
1000
0000
1000
,
0010
0000
0010
0100
0000
0100
0001
0000
0001
2000
0000
0000
,
3001
0002
1003
0101
,
0101
0000
0000
0101
0000
0001
1000
0000
0000
1010
0000
0000
,
1010
0000
0000
1010
0000
1000
0001
0000
0000
0011
0000
0000
,
0011
0000
0000
0011
0000
0001
1000
0000
0000
1100
0000
0000
,
1100
0000
0000
1100
0000
1000
0001
0000
0000
0101
0000
0000
,
0110
0000
0000
0101
0000
1000
0001
0000
0000
1100
0000
0000
,
0110
0000
0000
1100
0000
1000
0001
0000
0000
0010
0000
0000
,
0010
0010
0010
0010
,
0100
0010
0000
0001
,
0010
0000
0001
1000
0000
0000
0010
0000
1000
0001
0000
0000
,
0100
0010
0100
0001
,
0010
0000
0001
1000
0000
0000
0010
0000
1000
0001
0000
0000
,
1000
0000
0100
1000
0000
0100
1000
0000
0100
1000
0000
0000
,
0001
0000
0100
0010
0000
0000
1000
0000
0100
0010
0000
0000
,
0001
0100
0001
1000
,
1001
0001
0101
0100
,
1010
1001
1001
0001
,
0100
0000
0001
1000
0000
0000
0010
0000
1000
0001
0000
0000
,
0100
0000
0010
1000
0000
0010
1000
0000
0010
1000
0000
0000
,
0001
0000
0010
0100
0000
0000
1000
0000
0010
0100
0000
0000
,
0001
0000
1000
0001
0000
1000
0001
0000
1000
0001
0000
0000
,
1000
0000
0100
0010
0000
0000
0001
0000
0100
0010
0000
0000
,
0010
1000
0001
1000
,
1001
0000
0000
0000
0000
0100
0010
0000
1000
0002
0000
0000
,
0003
0000
0000
0000
;
