#TITLE:OH NICK PLEASE NOT SO QUICK;
#SUBTITLE:;
#ARTIST:E-ROTIC;
#TITLETRANSLIT:;
#SUBTITLETRANSLIT:;
#ARTISTTRANSLIT:;
#GENRE:;
#CREDIT:;
#MUSIC:OH NICK PLEASE NOT SO QUICK.mp3;
#BANNER:OH NICK PLEASE NOT SO QUICK.png;
#BACKGROUND:OH NICK PLEASE NOT SO QUICK-bg.png;
#CDTITLE:;
#SAMPLESTART:52.067;
#SAMPLELENGTH:11.281;
#SELECTABLE:YES;
#OFFSET:-0.036;
#BPMS:0.000=130.306;
#STOPS:;
#DISPLAYBPM:130.000;
#BGCHANGES:;
#FGCHANGES:;

//--------------- dance-single - HellKiteChaos ----------------
#NOTES:
     dance-single:
     HellKiteChaos:
     Challenge:
     13:
     0,0,0,0,0:
0000
0000
0000
0000
,
0000
0000
0000
0000
,
0000
0000
0000
0000
,
0000
0000
0000
0000
,
1000
0000
0001
0100
0001
0000
1000
0100
1000
0000
0001
0010
0001
0000
1000
0000
,
0001
0000
1000
0010
1000
0000
0001
0010
0001
0000
1000
0100
1000
0000
0001
0000
,
0200
0010
0310
1000
0000
1000
0001
1000
,
0002
0100
0103
0001
1000
0100
0010
0001
,
1000
0000
0001
0010
0001
0000
0100
0000
0001
0000
1000
0010
1000
0000
0001
0000
,
1000
0000
0100
0010
0100
0000
1000
0000
0002
0000
0010
0000
0013
0000
0100
0000
,
1000
0001
1001
0000
0100
0010
0110
0000
,
2000
3100
0200
0310
0020
0031
0002
1003
,
0001
0100
0002
0000
1003
0010
2000
0000
,
3001
0010
0002
0000
1003
0100
2000
0000
,
3001
0000
0010
0000
0100
0000
1000
0001
0000
1000
0001
0000
0100
0000
0010
0000
,
1000
0000
0001
0000
0100
0000
0010
0100
0000
0010
0100
0000
0010
0000
1000
0000
,
0001
0010
1000
0010
0001
0010
0001
0000
,
1000
0100
0001
0100
0010
0100
1000
0000
,
0001
0100
0010
1000
0100
1000
0001
0000
,
0100
0000
0000
0100
0000
0000
0010
0000
0000
0100
0000
0000
1001
0000
0000
0000
,
0001
0000
0000
0100
0000
0000
0010
0000
0000
1000
0000
0000
0100
0000
0010
0000
,
0001
0000
0000
1000
0000
0000
0010
0000
0000
0100
0000
0000
0001
0000
1000
0000
,
1001
0000
0000
0100
0000
0000
0010
0000
0000
1000
0000
0000
0001
0000
0100
0000
,
0001
0000
0000
0010
0000
0000
0100
0000
0000
1000
0000
0000
0001
0000
1000
0000
,
0110
0000
0000
1000
0000
0000
0001
0000
0000
0100
0000
0000
0010
0000
0100
0000
,
0001
0000
0000
0010
0000
0000
0100
0000
0000
0010
0000
0000
0001
0000
1000
0000
,
0110
0000
0000
0001
0000
0000
0100
0000
0000
1000
0000
0000
0001
0000
0100
0000
,
2000
3200
0302
0013
,
2002
0000
3003
0000
,
0001
0000
1000
0010
1000
0000
0001
0010
0001
0000
1000
0100
1000
0000
0001
0000
,
1000
0000
0001
0100
0001
0000
1000
0100
1000
0000
0001
0010
0001
0000
1000
0000
,
0020
0100
0130
0001
0000
0001
1000
0001
,
2000
0010
3010
1000
0001
0010
0100
1000
,
0001
0000
1000
0100
1000
0000
0010
0000
1000
0000
0001
0100
0001
0000
1000
0000
,
0001
0000
0010
0100
0010
0000
0001
0000
2000
0000
0100
0000
3100
0000
0010
0000
,
0001
1000
1001
0000
0010
0100
0110
0000
,
0002
0013
0020
0130
0200
1300
2000
3001
,
1000
0010
2000
0000
3001
0100
0002
0000
,
1003
0100
2000
0000
3001
0010
0002
0000
,
1003
0000
0100
0000
0010
0000
0001
1000
0000
0001
1000
0000
0010
0000
0100
0000
,
0001
0000
1000
0000
0010
0000
0100
0010
0000
0100
0010
0000
0100
0000
0001
0000
,
1000
0100
0001
0100
1000
0100
1000
1000
,
0001
0010
1000
0010
0100
0010
0001
0001
,
1000
0000
0010
0000
0100
0000
0001
0000
0010
0000
0001
0000
1000
0000
0001
1000
,
0001
0000
0100
0000
0010
0000
1000
0100
0000
0010
0001
0000
1000
0000
0001
0000
,
2002
0000
0000
0000
,
3003
0000
0000
0000
;
