#TITLE:MY SUMMER LOVE;
#SUBTITLE:;
#ARTIST:mitsu-O! with GEILA;
#TITLETRANSLIT:;
#SUBTITLETRANSLIT:;
#ARTISTTRANSLIT:;
#GENRE:Dance Dance Revolution 4th Mix,Dancing Stage Euromix 2;
#CREDIT:;
#MUSIC:MY SUMMER LOVE.mp3;
#BANNER:MY SUMMER LOVE.png;
#BACKGROUND:MY SUMMER LOVE-bg.png;
#CDTITLE:;
#SAMPLESTART:28.812;
#SAMPLELENGTH:13.788;
#SELECTABLE:YES;
#OFFSET:-0.038;
#BPMS:0.000=100.090;
#STOPS:;
#DISPLAYBPM:100.000;
#BGCHANGES:;
#FGCHANGES:;

//--------------- dance-single - HellKiteChaos ----------------
#NOTES:
     dance-single:
     HellKiteChaos:
     Challenge:
     13:
     0,0,0,0,0:
0000
0000
0000
0000
,
0000
0000
0000
0000
,
0000
0000
0000
0000
,
0000
0000
0000
0000
,
0001
0000
1000
0000
0100
0010
0001
1000
0001
0000
0100
0001
0100
0000
0001
0000
,
1000
0000
0100
0000
1000
0000
0100
0010
0001
0000
0100
0010
1000
0000
0001
0000
,
1000
0000
0001
0000
1000
0010
0100
0001
1000
0000
0100
1000
0100
0000
0010
0000
,
0001
0000
1000
0001
1000
0001
1000
0100
0010
0000
0010
0000
0001
0000
0001
0000
,
1000
0000
0001
1000
0001
1000
0010
0100
0001
0000
1000
0001
1000
0000
0100
0000
,
1000
0000
0100
0000
1000
0100
1000
0100
0010
0000
0001
1000
0010
0000
0100
0000
,
0001
0000
0100
0010
0100
0001
1000
0001
1000
0000
0001
0010
0001
0000
1000
0000
,
0100
0000
1000
0001
0100
0001
1000
0001
2000
0000
0000
0000
3001
0000
0000
0000
,
1000
0000
0010
0000
1000
0000
0001
1000
0001
0000
1000
0000
0100
0000
0010
0000
,
0001
0000
0100
0010
1000
0000
1000
0000
1010
0000
1000
0000
1001
0000
0001
0000
,
0101
0000
0100
0000
0010
0000
1000
0001
1000
0000
0100
0000
0010
0000
0001
1000
,
0000
1000
0001
0000
0100
0000
0010
0000
1001
0000
0000
0000
1001
0000
0100
0000
,
0001
0000
1000
0000
0010
0100
0010
0100
0001
0000
0000
0000
1000
0000
0100
0000
,
0010
0001
1000
0100
1100
0000
0101
0001
,
0100
0000
0010
0000
1000
0001
1000
0001
1000
0000
0000
0000
0001
0000
0100
0000
,
0010
0010
1000
0100
0010
0000
0011
0001
,
1000
0000
0020
0000
0000
0000
0000
0000
0030
0000
0000
0100
0000
0010
0100
0010
,
0200
0000
0000
0302
0000
0000
2003
0000
0000
3100
0010
0001
1000
0001
1000
0010
,
0100
0000
0001
2000
0000
0000
3100
0000
1000
0001
0100
0001
0100
0001
0000
0100
,
0000
0010
0100
0010
0100
0010
0100
0010
0000
1000
0010
1000
0010
1000
0010
1000
,
0001
0100
0001
0100
0010
0000
0010
0000
0000
1000
0100
1000
0010
0000
0010
0000
,
0100
0001
0100
0001
1000
0000
0100
1000
0000
0001
0100
0000
1001
0000
0000
0000
,
1000
0010
1000
0010
0100
0000
0001
0010
0000
0001
0100
0001
0010
0000
0000
0000
,
0100
0000
0000
1000
0000
0000
0100
0000
0000
1000
0000
0000
0001
0000
0000
0000
0000
0000
0100
0000
0000
0010
0000
0000
0100
0000
0000
0000
0001
0000
0000
0000
1000
0000
0000
0000
0001
0000
0000
0000
0000
0000
0000
0000
0000
0000
0000
0000
,
0001
0000
0100
0000
0001
0000
1000
0001
1000
0000
0001
0000
0010
0000
0100
0000
,
1000
0000
0010
0100
0001
0000
0001
0000
0101
0000
0001
0000
1001
0000
1000
0000
,
1010
0000
0010
0000
0100
0000
0001
1000
0001
0000
0010
0000
0100
0000
1000
0001
,
0000
0001
1000
0000
0010
0000
0100
0000
1001
0000
0000
0000
1001
0000
0010
0000
,
1000
0000
0001
0000
0100
0010
0100
0010
1000
0000
0000
0000
0001
0000
0010
0000
,
0100
1000
0001
0010
0011
0000
1010
1000
,
0010
0000
0100
0000
0001
1000
0001
1000
0001
0000
0000
0000
1000
0000
0010
0000
,
0100
0100
0001
0010
0100
0000
1100
1000
,
0001
0000
0000
1001
2002
0000
0000
0000
,
3003
0000
0000
0000
;
