#TITLE:My Only Shining Star;
#SUBTITLE:;
#ARTIST:NAOKI feat. Becky Lucinda;
#TITLETRANSLIT:;
#SUBTITLETRANSLIT:;
#ARTISTTRANSLIT:;
#GENRE:;
#CREDIT:;
#BANNER:My Only Shining Star.png;
#BACKGROUND:My Only Shining Star-bg.png;
#LYRICSPATH:;
#CDTITLE:;
#MUSIC:My Only Shining Star.ogg;
#OFFSET:0.000000;
#SAMPLESTART:40.250000;
#SAMPLELENGTH:15.000000;
#SELECTABLE:YES;
#BPMS:0.000000=155.000000
;
#STOPS:
;
#BGCHANGES:;
#KEYSOUNDS:;
#ATTACKS:;

//---------------dance-single - ----------------
#NOTES:
     dance-single:
     :
     Challenge:
     13:
     0.574758,0.755885,0.329620,0.290841,0.189047,415.000000,381.000000,34.000000,30.000000,0.000000,0.000000,0.574758,0.755885,0.329620,0.290841,0.189047,415.000000,381.000000,34.000000,30.000000,0.000000,0.000000:
// measure 0
0000
0000
0000
0000
,  // measure 1
0000
0000
0000
0000
,  // measure 2
0000
0000
0000
0000
,  // measure 3
0000
0000
0000
0000
,  // measure 4
0000
0000
0000
0000
,  // measure 5
0000
0000
0000
0000
0000
0000
0000
0000
0000
0000
0000
0000
0000
0000
1000
0100
,  // measure 6
1000
0000
0100
1000
0002
0000
0103
0001
,  // measure 7
2000
0000
3010
1000
0200
0000
0320
0000
,  // measure 8
0032
1003
1001
1100
,  // measure 9
0101
0000
0000
0000
1010
0000
0000
0000
0001
0000
0000
1000
0000
0000
0010
0000
,  // measure 10
0200
0000
0301
0001
0100
0001
1000
0010
,  // measure 11
0100
0001
2000
0000
3100
1000
0010
0100
,  // measure 12
0002
0000
0103
0100
0010
0100
0001
1000
,  // measure 13
0200
0000
0310
0000
0010
0001
1000
0001
,  // measure 14
0200
0000
0310
0010
0100
0001
0100
0010
,  // measure 15
1000
0100
2000
0000
3001
1000
0010
0100
,  // measure 16
0002
0000
0103
0010
0100
0001
1000
0100
,  // measure 17
0020
0000
0000
0000
0031
0000
0000
0000
1000
0000
0000
0001
0100
0000
0001
0000
,  // measure 18
1000
0010
0100
0001
1000
1000
0100
1000
,  // measure 19
0010
0100
0001
1000
0100
0100
0010
0001
,  // measure 20
1000
0010
0100
0001
1000
1000
0001
1000
,  // measure 21
0010
0100
0001
1000
0100
0010
1001
0000
,  // measure 22
0001
0010
0100
0010
0001
1000
0010
0100
,  // measure 23
0001
1000
0020
0000
1030
0001
0100
0001
,  // measure 24
2000
0000
3100
1000
0010
0100
0101
1001
,  // measure 25
0000
1100
0000
1001
0000
0011
1000
0000
,  // measure 26
0001
0000
1000
0000
0010
0100
0010
0000
0000
0000
0100
0000
0001
0100
0001
0000
,  // measure 27
0000
0000
0100
0000
0010
1000
0010
0000
0000
0000
0100
0000
0001
0000
1000
0000
,  // measure 28
0100
0000
0010
0000
0001
0010
0001
0000
0000
0000
1000
0000
0000
0000
2001
0000
,  // measure 29
0000
0010
3010
0000
1000
0010
0100
0001
,  // measure 30
1000
0000
0100
0000
1000
0001
1000
0000
0000
0000
0001
0000
0100
0001
0100
0000
,  // measure 31
0000
0000
0010
0000
1000
0010
1000
0000
0000
0000
0001
0000
1000
0000
0010
0000
,  // measure 32
0200
0000
0301
2000
0000
3001
0100
0001
,  // measure 33
1000
0010
0100
0001
,  // measure 34
1000
0000
0100
0000
1000
0100
0010
0000
0001
0000
1000
0000
0010
1000
0001
0000
,  // measure 35
0100
0000
0010
0000
1000
0100
0010
0000
0001
0000
1000
0000
0001
0000
1000
0000
,  // measure 36
0010
0000
0100
0000
0001
0100
0010
0000
1000
0000
0001
0000
1000
0100
0010
0000
,  // measure 37
0001
0000
1000
0000
0010
0100
0001
0000
1000
0000
0010
0000
1000
0000
0010
0000
,  // measure 38
0100
0000
0001
0000
1000
0100
0010
0000
0001
0000
1000
0000
0010
0100
0001
0000
,  // measure 39
1000
0000
0100
0000
0010
0001
0100
0000
0001
0000
1000
0000
0001
0000
1000
0000
,  // measure 40
0020
0000
0100
0230
0000
0302
0000
2003
,  // measure 41
0000
3200
0000
0310
0001
0010
0100
1000
,  // measure 42
1010
0000
0000
0000
0001
0000
0000
0100
,  // measure 43
0101
0000
0000
0000
1000
0000
0000
0010
,  // measure 44
1010
0000
0000
0000
0000
0000
0001
0000
0001
0000
0000
0000
0000
0000
1000
0001
,  // measure 45
1000
0000
2002
0000
0000
0000
3003
0001
,  // measure 46
0100
0000
0000
0101
0000
0000
0110
0000
0000
0000
0000
0000
0010
0000
1000
0000
,  // measure 47
0100
0000
0000
1100
0000
0000
0110
0000
0000
0000
0000
0000
0010
0000
0001
0000
,  // measure 48
1000
0000
0001
1000
,  // measure 49
0010
0000
0010
0000
0000
0000
0000
0000
2002
0000
0000
0000
0000
3003
0000
0000
,  // measure 50
0101
0100
0010
1000
0100
0010
0001
1000
,  // measure 51
0010
1000
0010
0000
1000
0100
1000
0000
0001
0100
0001
0000
1000
0000
0000
0000
,  // measure 52
0001
1000
0010
0110
0000
0110
0000
1001
,  // measure 53
0000
0001
1000
0010
0100
0001
1000
0100
,  // measure 54
1000
0010
0100
0001
0010
0100
1000
0001
,  // measure 55
0100
0001
0100
0000
0001
0010
0001
0000
1000
0010
1000
0000
0001
0000
0100
0000
,  // measure 56
0101
0000
1000
1100
0000
0110
0000
2002
,  // measure 57
0000
3003
0001
1000
,  // measure 58
0010
0000
1000
0100
1000
0000
0100
0010
0100
0000
0010
0001
0010
0000
0001
0100
,  // measure 59
0001
0000
0100
0010
0100
0000
0010
1000
0010
0000
1000
0100
1000
0000
0100
1000
,  // measure 60
0002
1003
1000
0010
,  // measure 61
1010
0000
0000
0101
0000
0000
1001
0000
0000
0001
0010
0000
0100
0000
0010
0000
,  // measure 62
0110
0000
0000
1001
0000
0000
0101
0000
0000
0000
0000
0000
0000
0000
0000
0000
;
