#TITLE:LOVE AGAIN TONIGHT (For Melissa MIX);
#SUBTITLE:;
#ARTIST:NAOKI feat. PAULA TERRY;
#TITLETRANSLIT:;
#SUBTITLETRANSLIT:;
#ARTISTTRANSLIT:;
#GENRE:;
#CREDIT:;
#MUSIC:LOVE AGAIN TONIGHT (For Melissa MIX).mp3;
#BANNER:LOVE AGAIN TONIGHT (For Melissa MIX).png;
#BACKGROUND:LOVE AGAIN TONIGHT (For Melissa MIX)-bg.png;
#CDTITLE:;
#SAMPLESTART:37.241;
#SAMPLELENGTH:10.800;
#SELECTABLE:YES;
#OFFSET:-0.041;
#BPMS:0.000=150.000;
#STOPS:;
#DISPLAYBPM:150.000;
#BGCHANGES:;
#FGCHANGES:;

//--------------- dance-single - HellKiteChaos ----------------
#NOTES:
     dance-single:
     HellKiteChaos:
     Challenge:
     12:
     0,0,0,0,0:
0000
0000
0000
0000
,
0000
0000
0000
0000
,
0000
0000
0000
0000
,
0000
0000
0000
0000
,
1000
0000
0000
0001
0000
0000
0100
0000
0000
0001
0000
0000
1000
0000
0100
0000
,
0010
0000
0000
0100
0000
0000
0010
0000
0000
0001
0000
0000
1000
0000
0001
0000
,
0100
0000
0000
0010
0000
0000
0100
0000
0000
0010
0000
0000
1000
0000
0001
0000
,
2002
0000
0000
3003
,
1000
0010
1000
0010
0000
0000
0000
0110
,
0000
0101
0000
1001
0000
0001
1000
0100
,
1100
0000
0000
0001
0011
0000
0000
1000
,
1001
0000
0000
0000
0001
0000
0000
0000
0100
0000
0000
0010
0100
0000
0010
0000
,
1000
0001
0100
0010
0000
0000
0000
0101
,
0000
0110
0000
1010
0000
1000
0001
0100
,
0010
0000
0000
1000
0000
0000
0001
0000
0000
0000
0000
0000
0000
0000
0000
0000
,
1001
0000
0000
0001
0000
0000
0100
0000
0010
0000
1000
0000
0100
0000
0010
0000
,
0001
0000
0000
1000
0100
0000
1000
0000
0001
0000
0000
0100
0010
0000
1000
0000
,
0001
0000
0000
1000
0100
0000
0010
0000
0100
0000
0000
0010
0001
0000
1000
0000
,
0001
0000
0000
0100
0010
0000
0100
0000
0010
0000
0000
1000
0001
0000
0100
0000
,
0010
1000
0100
0001
0100
1000
0001
0000
,
1000
0000
0000
0001
0100
0000
0010
0000
1000
0000
0000
0001
0010
0000
0100
0000
,
1000
0000
0000
0010
1000
0000
0001
0000
0100
0000
0000
0001
1000
0000
0100
0000
,
0010
0000
0001
1000
1000
0010
0000
0110
,
0000
2000
0002
0000
3003
0000
0000
0000
,
0002
0100
1003
0000
0002
0100
1003
0000
,
0002
0010
1003
0001
1000
0100
0010
0000
,
0001
0100
0001
0100
0010
1000
0010
0001
,
1000
0100
0001
1000
0010
0100
0001
0000
,
1000
0100
0010
0100
0001
0100
1000
0000
,
0001
0100
1000
0100
0010
0100
0001
0000
,
1000
0010
0100
0100
0001
1000
0001
0001
,
0010
1000
0010
0010
0100
0010
1001
0000
,
0000
0000
2000
0010
3000
0020
0100
0030
,
0200
0001
0300
0001
1000
0100
0110
0000
,
0010
0000
0000
0001
0000
0000
0010
0000
0100
0000
0010
0000
0100
0000
1000
0000
,
0001
0000
0000
1000
0000
0000
0010
0000
0100
0000
0010
0000
1001
0000
0000
0000
,
0000
0000
0002
0100
0003
0200
0010
0300
,
0020
1000
0030
1000
0100
0010
0110
0000
,
0010
0000
0000
0001
0000
0000
1000
0000
0100
0000
1000
0000
0100
0000
1000
0000
,
0010
0110
0100
1001
,
2000
0100
3001
0000
2000
0100
3001
0000
,
2000
0010
3001
1000
0001
0100
0010
0000
,
1000
0100
1000
0100
0010
0001
0010
1000
,
0001
0100
1000
0001
0010
0100
1000
0000
,
0001
0100
0010
0100
1000
0100
0001
0000
,
1000
0100
0001
0100
0010
0100
1000
0000
,
0001
0010
0100
0100
1000
0001
1000
1000
,
0010
0001
0010
0010
0100
0010
1001
0000
,
0010
0000
1001
0000
0010
0010
1001
0000
,
0010
0100
0010
0100
0010
0010
1001
0000
,
1000
0010
0100
0100
0001
0010
0001
0001
,
1000
0000
0100
0000
0010
0000
0001
0000
1000
0000
0100
0000
0010
0100
0010
0100
,
0020
0001
0100
0031
,
2000
0010
0001
3010
,
0100
0000
0001
0000
1000
0000
0010
0100
,
0200
0000
0310
0000
0100
0010
1001
0000
,
1000
0000
0000
0100
0000
0000
1000
0000
0000
0010
0000
0000
0100
0000
0001
0000
,
1000
0000
0000
0001
0000
0000
0100
0000
0000
0010
0000
0000
1000
0000
0001
0000
,
2002
0000
0000
0000
,
3003
0000
0000
0000
;
