#TITLE:LEADING CYBER;
#SUBTITLE:;
#ARTIST:dj TAKA;
#TITLETRANSLIT:;
#SUBTITLETRANSLIT:;
#ARTISTTRANSLIT:;
#GENRE:;
#CREDIT:;
#MUSIC:LEADING CYBER.mp3;
#BANNER:LEADING CYBER.png;
#BACKGROUND:LEADING CYBER-bg.png;
#CDTITLE:;
#SAMPLESTART:28.290;
#SAMPLELENGTH:12.000;
#SELECTABLE:YES;
#OFFSET:-1.132;
#BPMS:0.000=150.000;
#STOPS:;
#DISPLAYBPM:150.000;
#BGCHANGES:;
#FGCHANGES:;

//--------------- dance-single - HellKiteChaos ----------------
#NOTES:
     dance-single:
     HellKiteChaos:
     Challenge:
     16:
     0,0,0,0,0:
0000
0000
0000
0000
,
0000
0000
0000
0000
,
0000
0000
0000
0000
,
0000
0000
0000
0000
,
0001
0000
0001
0000
0101
0000
0100
0010
0100
0001
0100
0010
0100
0010
1000
0000
,
1000
0000
1000
0000
1100
0000
0100
0010
0100
1000
0100
0010
0100
0010
0001
0000
,
0001
0000
0001
0000
0011
0000
0010
0100
1000
0100
0010
0100
0010
0100
1000
0000
,
1000
0000
1010
0000
0010
0100
0010
1000
0010
0100
0001
1000
0010
0100
0001
1000
,
0100
0000
0010
0100
0000
1000
0100
0000
0010
0100
0000
1000
0100
0000
0010
0001
,
1000
0000
0010
0100
0000
0010
1000
0000
0010
0100
0000
0010
1000
0000
0001
0000
,
0101
0000
0100
0010
0000
1000
0010
0000
0100
0001
0000
1000
0010
0000
0100
0000
,
0001
0000
0001
0000
0011
0000
1010
0000
1100
0000
1000
0000
0001
1000
0001
1000
,
0100
0000
0010
0001
0000
0010
0100
0000
0010
0001
0000
0010
0100
0000
1000
0000
,
0001
0000
0100
0010
0000
0100
0001
0000
0100
0010
0000
0100
0001
0000
1000
0000
,
0100
0000
0100
0000
0010
0001
1000
0001
1000
0100
0010
0000
0001
1000
0001
0000
,
0100
0000
0100
0000
0010
1000
0010
1000
0100
0010
0001
1000
0010
0100
0010
0100
,
0001
0000
0000
0000
,
1000
0000
0100
0000
1100
0000
0100
0000
0010
0001
1000
0001
0010
0100
1000
0001
,
1000
0000
0001
0000
0101
0000
0100
0000
0010
1000
0001
1000
0010
0100
0001
1000
,
0001
0000
0010
0000
0110
0000
0100
0000
0010
0100
1000
0001
1000
0100
0010
0000
,
0001
0100
0010
1000
0001
0100
0010
0000
0100
0001
0010
0100
0010
0001
1000
0001
,
1000
0000
1000
0000
1001
0000
0001
0000
0100
0010
1000
0001
0010
0100
1000
0000
,
0001
0000
0100
0000
0101
0000
0100
0000
0010
1000
0100
0010
0001
1000
0001
0000
,
0100
0010
1000
0010
0100
0001
1000
0000
0100
0010
0001
1000
0001
0010
0100
1000
,
0001
0100
0001
0100
0010
1000
0010
1000
0100
0000
0000
0000
0000
0000
0000
0000
,
0110
0000
0000
0001
1000
0000
0000
1000
0100
0000
0100
0000
0110
0000
0000
0000
,
0011
0000
0011
0000
0001
0100
0000
0100
0001
0000
0001
0000
0011
0000
0000
0000
,
1100
0000
0000
0100
1000
0000
0000
1000
0001
0000
1000
0000
1001
0000
0000
0000
,
1010
0000
1010
0000
0010
0100
0000
0100
0001
0000
0100
0000
0110
0000
0000
0000
,
1000
0010
0000
0010
0000
0100
0010
0000
1000
0000
0001
0000
1000
0000
0001
1000
,
0100
1000
0100
0010
0000
0001
0000
0010
0001
0000
0100
0000
1001
0000
0001
0100
,
0001
0100
0000
0010
0000
1000
0100
1000
0100
1000
0000
0010
0000
0100
0001
0100
,
0010
1000
0100
0001
0100
1000
0100
0001
0100
1000
0100
0001
0100
1000
0100
0010
,
0001
0000
0000
0100
0010
0000
0000
0000
0000
0000
0000
0000
0000
0000
0000
0000
,
0010
1000
0001
1000
0000
0001
0010
0000
0100
1000
0100
1000
0010
0100
0001
0100
,
0001
0100
0010
1000
0100
0000
0010
0001
1000
0100
0010
0001
1000
0000
0000
0000
,
0010
0100
0001
0100
0000
0001
0100
0010
1000
0000
0000
0000
1001
0000
0000
0000
,
1000
0001
1000
0001
0000
0010
0100
1000
0100
1000
0001
0000
1001
0000
0000
0000
,
0001
1000
0001
1000
0000
0010
0100
0001
1000
0001
1000
0000
1001
0000
0001
0100
,
0010
0100
0001
1000
0000
0000
0100
0010
0001
0010
0100
1000
0000
0000
0100
0010
,
0001
0100
0010
1000
0100
0010
0001
0100
0010
1000
0100
0010
0001
0100
0010
1000
,
0001
1000
0001
0000
0100
0010
0000
0100
1000
0000
0100
0010
0000
0100
0001
0000
,
0100
0000
0100
0000
0001
0010
0000
0100
0010
0000
0001
0010
0000
0100
0010
0000
,
0001
0000
0001
0000
1000
0100
0000
1000
0001
0000
1000
0100
0000
1000
0001
0000
,
1000
0000
0010
0000
0100
0010
0000
0001
0010
0000
0100
0010
0000
1000
0010
0000
,
0100
0000
0100
0000
0001
0100
0000
0001
1000
0000
0001
0100
0000
0001
1000
0000
,
0001
0000
0001
0000
1000
0010
0000
1000
0001
0000
1000
0100
0000
1000
0001
0000
,
1000
0000
0100
0000
0010
0001
0000
0010
0100
0000
0010
1000
0000
0010
0100
0000
,
1000
0000
1000
0000
0001
0000
1000
0000
0001
0010
0100
1000
0010
0000
0100
0010
,
0100
0000
0100
0010
0000
1000
0010
0000
0100
0010
0000
0001
0010
0000
0100
0001
,
1000
0000
0100
0010
0000
0100
0001
0000
0100
0010
0000
0100
1000
0000
0001
0000
,
0011
0000
0010
0100
0000
1000
0100
0000
0010
0001
0000
1000
0100
0000
0010
0000
,
0001
0000
1000
0010
0000
0100
0001
0000
1000
0010
0000
0100
0001
1000
0001
1000
,
0010
0000
0100
0001
0000
0100
0010
0000
0100
1000
0000
0100
0010
0000
1000
0000
,
0001
0000
0010
0100
0000
0010
0001
0000
0010
1000
0000
0010
0001
0000
1000
0000
,
0010
0000
0010
0000
0100
0001
1000
0001
1000
0010
0100
0000
0001
1000
0001
0000
,
0010
0000
0010
0000
0100
1000
0100
1000
0010
0100
0001
1000
0100
0010
0100
0010
,
2002
0000
0000
0000
,
0000
0000
0000
0000
,
3003
0000
0000
0000
;
