#TITLE:Last Message;
#SUBTITLE:;
#ARTIST:good-cool feat. Meg;
#TITLETRANSLIT:;
#SUBTITLETRANSLIT:;
#ARTISTTRANSLIT:;
#GENRE:;
#CREDIT:;
#MUSIC:Last Message.mp3;
#BANNER:Last Message.png;
#BACKGROUND:Last Message-bg.png;
#CDTITLE:;
#SAMPLESTART:39.092;
#SAMPLELENGTH:11.613;
#SELECTABLE:YES;
#OFFSET:-0.382;
#BPMS:0.000=155.000;
#STOPS:;
#DISPLAYBPM:155.000;
#BGCHANGES:;
#FGCHANGES:;

//--------------- dance-single - HellKiteChaos ----------------
#NOTES:
     dance-single:
     HellKiteChaos:
     Challenge:
     15:
     0,0,0,0,0:
0000
0000
0000
0000
,
0000
0000
0000
0000
,
0000
0000
0000
0000
,
0000
0000
0000
0000
,
0000
0000
0000
0000
,
1000
0000
0001
0010
0000
0000
0100
0000
1000
0000
0100
0000
0110
0000
0000
0000
,
0001
0010
0001
0010
0100
1000
0100
1000
0010
1000
0001
0100
0010
1000
0001
0100
,
0010
0000
1000
0001
0000
0000
0100
0000
0010
0000
1000
0000
1001
0000
0000
0000
,
1000
0100
0010
0000
0100
0010
0001
0000
1000
0000
1001
0000
0000
0000
1001
0000
,
0001
0100
0010
0100
0010
1000
0001
1000
,
0100
0010
0100
0001
0100
0010
0001
0000
,
1000
0010
1000
0001
0100
0010
0100
0010
,
1000
0000
0001
0000
0100
0000
1000
0000
0100
0000
0001
0000
1000
0001
1000
0001
,
0100
0001
0010
0001
0100
0010
0100
0010
,
1000
0100
1000
0010
0100
0010
1000
0000
,
0001
0010
0100
0010
1000
0010
0001
1000
,
0100
0000
0010
0000
0100
0000
0010
0000
0001
1000
0100
0010
0100
0010
0001
1000
,
0100
0010
0001
1000
0010
1000
1010
0000
,
1000
0010
0100
0010
0100
0001
0101
0000
,
0001
0010
0001
1000
0010
1000
0100
0010
,
0002
0203
0320
2030
3200
0320
0032
0203
,
0310
0000
1000
0000
0010
1000
0001
0000
0010
0000
0001
0000
1000
0100
0010
0000
,
0001
0000
1000
0000
0001
0100
0010
0000
1000
0000
0001
0000
0010
0100
0010
0000
,
0001
1000
0100
0010
0001
0010
0100
1000
,
1001
0101
0000
1100
0000
0022
0000
0033
,
0001
1000
2010
0000
3010
0100
0010
0100
,
0001
0000
1001
0000
1000
0000
1001
0000
0001
0010
0100
0000
1000
0100
0010
0001
,
1000
0100
0001
0100
1000
0001
0010
0100
,
1000
0000
0001
0000
1001
0000
1000
0000
0001
0100
0010
1000
0001
0100
0010
0100
,
0001
0100
0102
0000
0103
0010
0100
0010
,
1000
0000
1001
0000
0001
0000
1001
0000
1000
0100
0010
0000
0001
0010
0100
1000
,
0001
0100
0010
0100
0010
1000
0001
0100
,
0020
1000
1030
0001
2000
0100
3100
1000
,
0010
1000
0100
0000
0010
0001
0100
0000
0000
0000
0110
0000
0000
0000
1001
0000
,
1000
0010
0100
0001
0011
0000
0011
0000
0100
1000
0010
0000
0000
0000
1010
0000
,
1000
0100
0010
0001
0010
0001
0010
0001
,
1000
0010
0100
0001
1000
0010
0100
0001
,
0010
0100
1000
0100
1000
0100
1000
0100
,
1000
0010
0100
0001
0010
0100
1000
0010
,
0100
0010
0100
0010
0100
0010
0100
0010
,
0100
0001
0010
1000
0010
0001
0100
1000
,
0100
0001
0100
0001
1000
0010
1000
0010
,
1000
0000
0001
0100
0001
0100
0010
0000
1000
0100
1000
0100
0010
0001
1000
0100
,
0020
0032
2003
3020
0230
0302
2003
3200
,
0000
0000
0320
0000
0032
0000
0203
0000
0302
0000
0013
0000
0110
0000
0010
0100
,
1000
0000
1000
0000
0001
0100
0010
0000
0010
0000
1000
0001
0010
0000
0010
0000
,
0100
1000
0001
0000
0001
0000
0100
0010
1000
0000
0001
0100
0010
0100
0010
1000
,
0002
0203
0320
0230
0320
2030
3002
0203
,
0000
0000
0320
0000
0230
0000
0302
0000
1003
0000
0001
0000
1001
0000
0001
1000
,
0100
0000
0100
0000
0010
0001
1000
0000
1000
0000
0010
0100
0001
0000
0001
0000
,
1000
0100
0010
0000
0010
0000
0001
1000
0001
1000
0010
0100
0010
0100
0001
1000
,
0001
0000
1000
0100
0000
0000
0010
0000
0001
0000
0010
0000
0110
0000
0000
0000
,
1000
0100
1000
0100
0010
0001
0010
0001
0100
0001
1000
0010
0100
0001
1000
0010
,
0100
0000
0001
1000
0000
0000
0010
0000
0100
0000
0001
0000
1001
0000
0000
0000
,
0001
0010
0100
1000
0001
0010
0100
1000
0010
0100
0010
0100
0001
1000
0010
0100
,
0001
0000
1000
0010
0000
0000
0100
0000
0001
0000
0100
0000
0110
0000
0000
0000
,
1000
0010
1000
0010
0100
0001
0100
0001
0010
0001
1000
0100
0010
0001
1000
0100
,
0010
0000
0001
1000
0000
0000
0100
0000
0010
0000
0001
0000
1001
0000
0000
0000
,
0001
0100
0010
0000
0100
0010
1000
0000
0001
0000
0101
0000
0000
0000
1010
0000
,
1000
0001
1000
0001
1000
0001
1000
0001
1000
0000
1001
0000
0000
0000
0220
0000
,
0000
0330
0000
0000
;
