#TITLE:IT'S RAINING MEN (Almighty Mix);
#SUBTITLE:;
#ARTIST:GERI HALLIWELL;
#TITLETRANSLIT:;
#SUBTITLETRANSLIT:;
#ARTISTTRANSLIT:;
#GENRE:;
#CREDIT:;
#MUSIC:IT'S RAINING MEN (Almighty Mix).mp3;
#BANNER:IT'S RAINING MEN (Almighty Mix).png;
#BACKGROUND:IT'S RAINING MEN (Almighty Mix)-bg.png;
#CDTITLE:;
#SAMPLESTART:0.000;
#SAMPLELENGTH:0.000;
#SELECTABLE:YES;
#OFFSET:-0.038;
#BPMS:0.000=136.251;
#STOPS:;
#DISPLAYBPM:136.000;
#BGCHANGES:;
#FGCHANGES:;

//--------------- dance-single - HellKiteChaos ----------------
#NOTES:
     dance-single:
     HellKiteChaos:
     Challenge:
     13:
     0,0,0,0,0:
0000
0000
0000
0000
,
0000
0000
0000
0000
,
0000
0000
0000
0000
,
0000
0000
0000
0000
,
0000
0000
0000
0000
,
0001
1000
0000
0001
0100
0000
0001
1000
0000
0001
0010
0000
0100
0000
0100
0000
,
1000
0100
0000
1000
0001
0000
1000
0010
0000
1000
0001
0000
0100
0000
0100
0000
,
0010
1000
0000
0010
0100
0000
0010
1000
0000
0010
0100
0000
0001
0000
0001
0000
,
0010
0100
0000
0010
0001
0000
0010
0100
0000
0010
0001
0000
1000
0000
1000
0000
,
0001
0100
0100
0010
0100
0001
0011
0000
,
1000
0100
0100
0010
0100
1000
1001
0000
,
1000
0001
0100
0010
1000
1000
1100
0000
,
0010
0001
1000
0010
0100
0001
1000
0100
,
0010
0001
0100
0001
1000
0100
1100
0000
,
1000
0001
0100
0001
0010
0100
0110
0000
,
0010
0100
1000
0010
0100
0010
0100
0001
,
1000
1000
0010
0010
0100
0100
0010
0010
,
2010
0000
3002
0000
0100
0100
0203
0010
,
0001
0010
0320
0000
2030
0000
3001
0100
,
0001
0010
1000
0010
0001
0000
0101
0000
,
1000
0010
0001
0010
1000
0000
0101
0000
,
2000
0010
0010
0000
0100
0000
3010
0000
,
0002
0100
0100
0000
0010
0000
0103
0000
,
0010
0100
0010
0100
0001
1000
0001
1000
,
0001
0100
0001
0100
0001
0100
0001
0100
0010
1000
0010
1000
0010
1000
0010
1000
,
0001
0000
0000
0000
0000
0000
0000
0000
0000
0000
0001
1000
0001
0000
1000
0000
,
0100
0000
0010
0000
2001
0000
0000
0000
3001
0000
0010
0100
0010
0000
0100
0000
,
1000
0001
0100
0000
0010
1000
0010
0100
,
0010
1000
1002
0000
0003
1100
0000
0011
,
0001
0000
0001
0000
1000
0000
1000
0000
0100
0000
0100
0000
0010
0001
0010
0001
,
0010
0000
0100
0000
1002
0000
0000
0000
1003
0000
0100
0010
0100
0000
0010
0000
,
0001
1000
0010
0000
0100
0001
0100
0010
,
0100
0001
2001
0000
3000
0011
0000
1100
,
1000
0000
1000
0000
0001
0000
0001
0000
0010
0000
0010
0000
0100
1000
0100
1000
,
0100
0000
0010
0000
1002
0000
0000
0000
1003
0000
0010
0100
0010
0000
0100
0000
,
0001
1000
0100
0000
0010
0001
0010
0100
,
0010
0001
2001
0000
3000
0101
0000
1010
,
1000
0000
1000
0000
0001
0000
0001
0000
0100
0000
0100
0000
0010
1000
0100
0010
,
0001
0000
1000
0000
0120
0000
0000
0000
0130
0000
0001
1000
0001
0000
1000
0000
,
0001
0010
0100
1000
0100
0010
0001
0100
,
0010
0010
2002
0000
3003
0110
0000
1001
,
0000
0000
0200
0000
0301
0001
1000
0010
,
0100
0100
1001
0000
0000
0000
1001
0000
,
0100
0100
1001
0000
0000
0000
1001
0000
,
0100
0100
1001
0000
0100
0010
0100
1001
;
