#TITLE:IN THE NAVY '99 (XXL Disaster Remix);
#SUBTITLE:;
#ARTIST:CAPTAIN JACK;
#TITLETRANSLIT:;
#SUBTITLETRANSLIT:;
#ARTISTTRANSLIT:;
#GENRE:;
#CREDIT:;
#MUSIC:IN THE NAVY '99 (XXL Disaster Remix).mp3;
#BANNER:IN THE NAVY '99 (XXL Disaster Remix).png;
#BACKGROUND:IN THE NAVY '99 (XXL Disaster Remix)-bg.png;
#CDTITLE:;
#SAMPLESTART:0.000;
#SAMPLELENGTH:0.000;
#SELECTABLE:YES;
#OFFSET:-0.034;
#BPMS:0.000=135.000;
#STOPS:;
#DISPLAYBPM:135.000;
#BGCHANGES:;
#FGCHANGES:;

//--------------- dance-single - HellKiteChaos ----------------
#NOTES:
     dance-single:
     HellKiteChaos:
     Challenge:
     13:
     0,0,0,0,0:
0000
0000
0000
0000
,
0000
0000
0000
2000
,
3001
0000
0000
1000
0100
0000
0100
0000
0100
0000
0000
0001
0100
0000
0100
0000
,
0100
0000
0000
1000
0010
0000
0010
0000
0010
1000
0000
0001
0100
0000
0100
0000
,
0001
0000
0000
1000
0100
0000
0100
0000
0100
0000
0000
0001
0010
0000
0010
0000
,
0010
0100
0010
0100
1000
0001
1000
0001
0100
0010
0100
0010
1000
0001
1000
0001
,
0100
0000
0000
0010
0100
0000
0100
0000
0100
0000
0000
0001
1000
0000
1000
0000
,
1000
0000
0000
0100
0010
0000
0010
0000
0010
0001
0000
1000
0100
0000
0010
0000
,
0001
0000
0000
1000
0010
0000
0010
0000
0010
0000
0000
0100
0001
0000
1000
0000
,
0001
0100
0001
0100
0010
1000
0010
1000
0001
0010
0001
0010
0100
1000
0100
1000
,
0001
0000
0100
0000
0001
0000
0100
0001
0100
0000
0010
0000
1000
0000
0000
0000
,
0100
0000
1000
0000
0100
0000
1000
0100
1000
0000
0100
0000
0010
0000
0000
0010
,
0001
0000
0010
0000
0001
0000
0010
0001
0010
0000
0100
0000
1000
0000
0000
0000
,
1000
0000
0010
0000
1000
0000
0010
1000
0010
0000
0100
0000
0001
0000
0000
0001
,
1000
0000
0100
0000
0010
0000
0001
1000
0001
0000
1000
0000
0100
0000
0000
0000
,
0001
0000
0100
0000
0010
0000
1000
0001
1000
0000
0001
0000
0010
0000
0000
0100
,
1000
0000
1000
0000
1000
0000
0000
1000
0001
0000
0001
0000
0100
0000
0000
0010
,
0100
1001
0101
1100
,
0001
0000
0000
1000
0100
0000
0100
0000
0001
0000
0000
1000
0100
0000
0100
0000
,
0001
0000
0000
1000
0100
0000
0100
1000
0001
1000
0001
0000
1001
0000
0000
0000
,
1000
0000
0000
0001
0100
0000
0100
0000
1000
0000
0000
0001
0100
0000
0100
0000
,
1000
0001
1000
0001
0100
0001
0100
0010
1000
0000
0000
0000
0000
0000
0000
0000
,
1000
0000
0010
0000
0100
0000
0010
0000
0100
0000
0000
0001
0100
0000
0010
0000
,
1000
0000
0010
0000
1000
0000
0010
0000
0100
0000
0000
0001
0100
0000
0010
0000
,
1000
0010
1000
0010
0100
0001
1000
0100
,
0010
0001
0011
0000
0010
0000
1001
0000
,
0001
0000
0010
0000
0100
0000
1000
0000
0001
0000
0000
0100
0001
0000
0100
0000
,
0001
0000
0010
0000
0100
0000
1000
0000
0001
0000
0000
0100
0001
0000
0100
0000
,
0001
0000
0010
0000
0100
0000
1000
0000
0001
0000
0000
0100
0001
0000
0100
0000
,
0010
0000
1010
0000
0100
0000
0101
0001
,
1000
0000
0100
0000
0010
0000
0001
0000
0100
0000
0000
0001
0100
0000
0001
0000
,
1000
0000
0100
0000
0010
0000
0001
0000
0100
0000
0000
0001
0100
0000
0001
0000
,
1000
0100
0010
0001
0100
0010
1000
0100
,
0010
0001
0010
0000
1100
0000
0011
0010
,
0001
0000
0100
0000
0010
0000
1000
0000
0001
0000
0000
1000
0001
0000
1000
0000
,
0010
0000
0100
0000
0001
0000
1000
0000
0001
0000
0000
1000
0010
0000
0010
0000
,
0100
0001
1000
0100
0010
0001
0100
0010
,
1001
0000
0000
0000
1000
0000
0000
0000
0001
0000
0000
0000
1000
0000
0000
0010
,
1000
0000
0010
0000
1000
0000
0010
1000
0010
0000
0100
0000
0001
0000
0000
0000
,
0010
0000
0001
0000
0010
0000
0001
0010
0001
0000
0010
0000
0100
0000
0000
0100
,
1000
0000
0100
0000
1000
0000
0100
1000
0100
0000
0010
0000
0001
0000
0000
0000
,
0001
0000
0100
0000
0001
0000
0100
0001
0100
0000
0010
0000
1000
0000
0000
1000
,
0001
0000
0010
0000
0100
0000
1000
0001
1000
0000
0001
0000
0010
0000
0000
0000
,
1000
0000
0010
0000
0100
0000
0001
1000
0001
0000
1000
0000
0100
0000
0000
0010
,
0001
0000
0001
0000
0001
0000
0000
0001
1000
0000
1000
0000
0010
0000
0100
0000
,
0110
0000
0000
0000
1001
0000
0000
0000
1010
0000
0000
0000
1000
0000
0000
0100
,
1000
0000
0100
0000
1000
0000
0100
1000
0100
0000
0010
0000
0001
0000
0000
0000
,
0100
0000
0001
0000
0100
0000
0001
0100
0001
0000
0100
0000
0010
0000
0000
0010
,
1000
0000
0010
0000
1000
0000
0010
1000
0010
0000
0100
0000
0001
0000
0000
0000
,
0001
0000
0010
0000
0001
0000
0010
0001
0010
0000
0100
0000
1000
0000
0000
1000
,
0001
0000
0100
0000
0010
0000
1000
0001
1000
0000
0001
0000
0100
0000
0000
0000
,
1000
0000
0100
0000
0010
0000
0001
1000
0001
0000
1000
0000
0010
0000
0000
0100
,
0001
0000
0000
0000
1001
0000
0000
0000
0000
0000
0000
0000
0010
0000
0000
0100
,
0001
1001
0000
0000
;
