#TITLE:IN THE HEAT OF THE NIGHT;
#SUBTITLE:;
#ARTIST:E-ROTIC;
#TITLETRANSLIT:;
#SUBTITLETRANSLIT:;
#ARTISTTRANSLIT:;
#GENRE:;
#CREDIT:;
#MUSIC:IN THE HEAT OF THE NIGHT.mp3;
#BANNER:IN THE HEAT OF THE NIGHT.png;
#BACKGROUND:IN THE HEAT OF THE NIGHT-bg.png;
#CDTITLE:;
#SAMPLESTART:42.351;
#SAMPLELENGTH:15.885;
#SELECTABLE:YES;
#OFFSET:-0.433;
#BPMS:0.000=135.978;
#STOPS:;
#DISPLAYBPM:136.000;
#BGCHANGES:;
#FGCHANGES:;

//--------------- dance-single - HellKiteChaos ----------------
#NOTES:
     dance-single:
     HellKiteChaos:
     Challenge:
     13:
     0,0,0,0,0:
0000
0000
0000
0000
,
0000
0000
0000
0000
,
0000
0000
0000
0000
,
0000
0000
0000
0000
,
0000
0000
0000
0000
0000
0000
0000
0000
0001
0000
0100
0000
0010
0000
1000
0001
,
0010
0000
0100
0000
0010
0000
0100
0000
1000
0000
0010
0000
0000
0000
0010
0100
,
0010
0000
0000
1000
0000
0000
0001
0000
1000
0000
0100
0000
0010
0000
0001
1000
,
0100
0000
0010
0000
0100
0000
0010
0000
0001
0010
0001
0000
1000
0100
1000
0000
,
0001
0100
0001
0000
1000
0010
1000
0000
0001
0000
0010
0000
0002
0000
0000
0000
,
0103
0010
2000
0000
3010
1000
0020
0000
,
1030
0100
0020
0000
0031
1000
0002
0000
,
1003
0001
0200
0000
0301
1000
0002
0000
,
0103
0010
2000
0000
3100
0010
0002
0000
,
1003
0001
0020
0000
0130
1000
0001
0100
,
0010
1000
0200
0000
0310
0001
2000
0000
,
3010
0100
0002
0000
1003
0100
0020
0000
,
0031
0100
2000
0000
3100
0001
1000
0100
,
0010
0100
1000
0001
0010
0001
1000
0010
,
1000
0001
0200
0000
0310
0100
0010
1000
,
0001
0100
0010
0100
0001
1000
0010
0100
,
0001
1000
0200
0000
0310
0001
1000
0001
,
0010
0100
1000
0010
1000
0001
0100
0010
,
1000
0000
0100
0000
0010
0000
0001
0000
1000
0100
1000
0000
0001
0000
1000
0000
,
0001
0010
0001
0000
1000
0000
0001
0000
0200
0000
0000
0000
0000
0000
0000
0000
,
0010
0000
0000
0000
0310
0000
0100
0000
0010
0000
0100
0000
0010
0000
1000
0001
,
1000
0001
1000
0001
1000
0000
0100
0000
0010
0000
0001
0000
0010
0000
0100
1000
,
0100
1000
0100
1000
0100
0000
0010
0000
0001
0000
1000
0000
0010
0000
0100
0001
,
0100
0001
0100
0001
0100
0000
0010
0000
1000
0000
0001
0000
0100
0000
0010
0100
,
0010
0100
0010
0100
0020
0000
0000
0000
1030
0000
0001
0000
0100
0000
0010
1000
,
0010
1000
0001
0100
0001
0000
1000
0000
0100
0000
0010
0000
0001
0000
1000
0100
,
1000
0100
0010
0001
0010
0000
0001
0000
1000
0000
0100
0000
0010
0000
0000
0000
,
0001
0100
0010
0000
0000
1000
0001
1000
,
0001
0000
0110
0000
0010
0000
1001
0000
0100
0000
0010
0000
1000
0000
0001
0010
,
0100
1000
0100
0010
0002
0000
0000
0000
1003
0000
0001
0000
0100
0000
0010
1000
,
0001
0100
0001
1000
0020
0000
0000
0000
0130
0000
0001
0000
1000
0000
0001
0100
,
0010
1000
0010
0100
0002
0000
0000
0000
0013
0000
0100
0000
0010
0000
0100
0000
,
1000
0000
0001
0000
0100
0000
0010
0000
1000
0000
0001
0000
0100
0000
0010
1000
,
0010
1000
0001
1000
0001
0000
1000
0000
0100
0000
0010
0000
0001
0000
0010
0001
,
0010
0001
1000
0001
1000
0000
0001
0000
1000
0100
1000
0000
0100
0010
0001
0000
,
0001
0100
0001
0000
0100
0010
1000
0000
0010
0100
0001
0000
0100
0010
1000
0000
,
0001
0100
0010
0000
1000
0010
0100
0001
1000
0000
0010
0000
0100
0000
0001
1000
,
0100
0000
0010
0000
0100
0000
0010
0000
0001
0000
0100
0000
0000
0000
0100
0010
,
0100
0000
0000
0001
0000
0000
1000
0000
0001
0000
0010
0000
0100
0000
1000
0001
,
0010
0000
0100
0000
0010
0000
0100
0000
1000
0100
1000
0000
0001
0010
0001
0000
,
1000
0010
1000
0000
0001
0100
0001
0000
1000
0000
0100
0000
0010
0000
0001
1000
,
0010
0000
0100
0000
0010
0000
0100
0000
0001
0000
0010
0000
0000
0000
0010
0100
,
0010
0000
0000
0001
0000
0000
1000
0000
0001
0000
0100
0000
0010
0000
1000
0001
,
0100
0000
0010
0000
0100
0000
0010
0000
1000
0010
1000
0000
0001
0100
0001
0000
,
1000
0100
1000
0000
0001
0010
0001
0000
2002
0000
0000
0000
0000
0000
0000
0000
,
0000
0000
0000
0000
,
0000
3003
0000
0000
;
