#TITLE:HIGHER;
#SUBTITLE:;
#ARTIST:NM feat.SUNNY;
#TITLETRANSLIT:;
#SUBTITLETRANSLIT:;
#ARTISTTRANSLIT:;
#GENRE:Dance Dance Revolution 4th Mix,Dancing Stage Euromix 2;
#CREDIT:;
#MUSIC:HIGHER.mp3;
#BANNER:HIGHER.png;
#BACKGROUND:HIGHER-bg.png;
#CDTITLE:;
#SAMPLESTART:36.841;
#SAMPLELENGTH:14.991;
#SELECTABLE:YES;
#OFFSET:-0.046;
#BPMS:0.000=132.082;
#STOPS:;
#DISPLAYBPM:132.000;
#BGCHANGES:;
#FGCHANGES:;

//--------------- dance-single - HellKiteChaos ----------------
#NOTES:
     dance-single:
     HellKiteChaos:
     Challenge:
     12:
     0,0,0,0,0:
0000
0000
0000
0000
,
0000
0000
0000
0000
,
0000
0000
0000
0000
,
0000
0000
0000
0000
,
2001
0000
3200
0000
0000
0310
0010
0020
,
0000
0032
0000
2003
0000
3010
1010
0000
,
0100
0001
0100
0001
1000
0010
1000
0010
,
0001
1000
0100
0001
1000
0100
0010
0000
,
0001
0010
0001
0010
0100
1000
0100
1000
,
0001
0010
1000
0001
0100
1000
0001
2000
,
0000
3010
0210
0000
0010
0000
0301
2000
,
0000
3001
0021
0000
0100
0000
0130
1000
,
0100
0010
0001
0010
0001
1000
0010
0100
,
0010
0100
0001
1000
0010
0100
0001
0000
,
1000
0000
0000
0100
0000
0000
0100
0000
1000
0000
0000
0001
0000
0000
0100
0000
,
0100
0010
1000
0001
0100
0010
1000
0000
,
0001
0000
0000
0100
0000
0000
0001
0000
1000
0000
0010
0000
1000
0000
0001
0000
,
0010
0000
0000
0100
0000
0000
1000
0000
0100
0000
1000
0000
0001
0000
0000
0000
,
0100
0000
0000
0010
0000
0000
1000
0000
0001
0000
0100
0000
0100
0000
0010
0000
,
1000
0100
0100
0000
0011
0000
0100
0110
,
0000
1100
0000
0101
0000
0011
0000
1010
,
1000
0000
0001
0000
0100
0000
0010
1000
0010
0000
0100
0000
0001
0000
0010
0000
,
0100
0000
1000
0000
0100
0000
0010
0001
0010
0000
0100
0000
1000
0000
1002
0000
,
0000
0000
0103
0000
0100
0000
0010
0100
0000
0100
0001
0000
1000
0000
0001
1000
,
0100
0010
0000
0010
0000
0001
1100
0001
,
0100
0000
0001
0000
0001
0000
1000
0001
1000
0000
0001
0000
0100
0000
0000
0000
,
0001
0000
1000
0000
0010
0000
1000
0001
1000
0000
0100
0000
0010
0000
0002
0000
,
0000
0100
0010
1000
,
0010
0000
0100
0000
1003
0001
1000
0001
,
0100
0000
0110
0000
0000
0000
1000
0001
,
1000
0000
1100
0000
0000
0010
0001
0010
,
0001
0000
0101
0000
0000
0001
0100
0010
,
1000
0000
0101
0000
1000
0100
1000
0100
,
0010
0000
0011
0000
0001
1000
0001
1000
,
0010
0000
0100
0000
0002
0100
0103
0000
,
0010
1000
0010
0100
0001
0010
0001
0100
,
1000
0100
0001
0010
0001
0100
1000
0100
,
0001
0000
0010
0000
0001
0000
1000
0100
1000
0000
0001
0000
0010
0000
0000
0000
,
0001
0000
0100
0000
0010
0000
0100
0001
0100
0000
0010
0000
0100
0000
0001
0000
,
0000
1000
0000
0001
0000
0101
0000
1000
,
0000
0000
1100
0000
0000
0000
0001
0000
0000
0000
0010
0000
0000
0010
0000
0000
,
0010
0100
1000
0100
0010
0001
1001
0000
,
0001
0100
0010
1000
0001
0100
0101
0002
,
0000
0010
1000
0100
,
1000
0000
0010
0000
1000
0000
0103
0100
,
0010
1000
0100
0001
0100
1000
0010
0000
,
0001
0100
1000
0100
0001
0010
0011
0000
,
0100
1000
0100
1000
0001
0010
0001
0010
,
1000
0000
0010
0000
0001
0000
1000
0000
0100
0000
0010
0000
0000
0010
0000
0000
,
0010
0001
0100
0001
0010
0001
0101
0000
,
1000
0100
1000
0010
1000
0100
1100
2000
,
0001
0001
0100
0100
,
0010
0010
0001
3001
,
0000
0000
1001
0000
0000
0000
0100
0000
0000
0000
0110
0000
0000
1001
0000
0000
,
0110
0000
0000
0000
;
