#VERSION:0.83;
#TITLE:Healing Vision;
#SUBTITLE:;
#ARTIST:DE-SIRE;
#TITLETRANSLIT:;
#SUBTITLETRANSLIT:;
#ARTISTTRANSLIT:;
#GENRE:;
#CREDIT:;
#MUSIC:Healing Vision.mp3;
#BANNER:Healing Vision.png;
#BACKGROUND:Healing Vision-bg.png;
#CDTITLE:;
#SAMPLESTART:19.645;
#SAMPLELENGTH:14.388;
#SELECTABLE:YES;
#OFFSET:-0.053;
#BPMS:0.000=98.000
,32.000=196.000
,162.250=198.000
,165.000=196.000
,200.000=12.250
,200.479=196.000
;
#STOPS:200.063=1.429
,200.146=0.510
,200.229=0.816
,200.313=0.510
,200.396=0.510
;
#WARPS:200.479=15.500;
#SPEEDS:0.000=1.000=0.000=0,
200.000=3.000=0.000=0,
200.063=1.200=0.000=0,
200.083=3.600=0.000=0,
200.146=1.500=0.000=0,
200.167=4.000=0.000=0,
200.229=2.000=0.000=0,
200.250=6.000=0.000=0,
200.313=3.000=0.000=0,
200.333=9.000=0.000=0,
200.396=1.000=0.000=0
;
#SCROLLS:0.000=1.000,
30.000=0.400,
30.250=0.500,
30.500=0.600,
30.750=0.700,
31.000=0.800,
31.250=0.900,
31.500=1.000,
282.000=0.250
;
#TICKCOUNTS:0.000=0;
#TIMESIGNATURES:0.000=4=4;
#COMBOS:0.000=1;
#DISPLAYBPM:49.000:196.000;
#BGCHANGES:;
#FGCHANGES:;

//--------------- dance-single - HellKiteChaos ----------------
#NOTEDATA:;
#STEPSTYPE:dance-single;
#DESCRIPTION:HellKiteChaos;
#DIFFICULTY:Challenge;
#METER:14;
#RADARVALUES:0,0,0,0,0;
#NOTES:
0000
0000
0000
0000
,
0000
0000
0000
0000
0000
0000
0010
0010
,
0001
0000
1000
0000
0100
0010
0100
0000
1000
0000
0001
0000
0100
0010
0100
0000
,
0010
0000
0000
1000
0001
0000
0000
0100
0010
0000
0000
1000
0001
0000
0100
0000
,
0010
0000
0200
0320
0230
0302
0203
0302
0000
2003
0000
3200
0000
0320
0000
0030
,
0000
0000
0002
0000
0003
0020
0000
0030
0200
0000
0300
2000
3200
2300
3002
0000
,
1003
0000
1000
0000
0001
0100
0001
0000
0100
0000
0100
0000
0010
1000
0010
0000
,
1010
0000
0101
0000
2002
0000
0000
3003
,
1000
0100
0100
1000
0000
0001
0100
0010
,
0100
0001
0001
1000
0000
0100
0010
0100
,
1000
0001
0001
0010
0000
0100
1000
0001
,
0100
0010
1000
0100
0010
0001
0100
0000
,
0001
0010
0010
0100
0000
1000
0010
1000
,
0100
0010
0010
0001
0000
1000
0100
1000
,
0001
0010
0010
0100
0000
1000
0010
0001
,
0010
0100
0001
1000
0010
0100
0001
0000
,
1000
0001
0010
0010
0000
0100
1000
0001
,
1000
0100
0100
0010
0000
0100
0010
0001
,
0100
0010
0010
1000
0000
0010
0100
0001
,
1000
0010
0010
0100
0001
0001
1000
0000
,
0100
0001
0100
0010
0000
0100
1000
1000
,
0100
0010
1000
0010
0000
0100
0010
0010
,
0001
1000
0001
0100
0000
0100
1000
0100
,
0010
0010
0100
0100
0001
0000
0000
0000
,
1000
0010
0100
0100
0001
0001
1000
0000
,
0001
0010
0100
0100
1000
1000
0001
0000
,
0100
0010
1000
1000
0001
0001
0100
0000
,
0010
1000
0100
0100
0010
0010
0001
1000
,
0001
0010
0100
0100
1000
1000
0001
0000
,
0100
0010
1000
1000
0001
0001
0010
0000
,
0100
1000
0001
0001
0100
0100
0010
0000
,
0100
0010
1000
0100
0010
0001
0100
0000
,
0010
1000
0010
0100
0001
0100
0010
1000
,
0100
0010
0100
1000
0001
0010
0100
1000
,
0001
0100
0010
0100
0001
0100
0010
1000
,
0100
0010
0100
1000
0001
0010
0100
0010
,
0001
1000
0010
0100
0010
1000
0100
0010
,
0001
0100
0010
0100
0001
1000
0010
0100
,
0001
0001
1000
1000
0001
0001
1000
1000
,
0100
0010
0001
0100
0010
1000
0100
0010
,
2002
0000
0000
0000
,
3003
0000
0000
0000
1000
0001
1000
0000
0000
0000
0001
1000
0001
0000
0000
0000
,
1000
0000
0001
0000
0000
0000
0100
0001
0100
0000
0010
0000
0000
0000
0010
0000
,
1000
0000
0010
0000
0000
0000
1000
0001
1000
0000
0100
0000
0000
0000
0010
0000
,
0001
0000
0010
0000
0000
0000
0010
0100
0010
0000
0100
0000
0000
0000
0000
0000
,
1000
0100
0100
0001
0100
0100
1000
0000
,
0001
0000
0100
0000
0000
0000
0010
1000
0010
0000
1000
0000
0000
0000
0001
0000
,
0010
0000
0001
0000
0000
0000
1000
0100
1000
0000
0001
0000
0000
0000
0100
0000
,
0010
0000
0100
0000
0000
0000
0001
1000
0001
0000
0010
0000
0000
0000
0000
0000
,
0100
0000
0000
0100
0000
0000
0100
0000
0000
0000
0000
0000
0000
0000
0000
0000
,
2002
0000
0000
0000
0000
0000
0000
0000
0000
0000
0000
0000
0000
0000
0000
0000
0000
0000
0000
3003
0000
0000
0000
1000
0000
0000
0000
0000
0000
0000
0000
0000
0000
0000
0000
0000
0000
0000
0000
0000
0000
0000
0000
0000
0000
0000
0000
0001
0000
0000
0000
0000
0000
0000
0000
0000
0000
0000
0000
0000
0000
0000
0000
0000
0000
0000
0000
0000
0000
0000
0000
0100
0000
0000
0000
0000
0000
0000
0000
0000
0000
0000
0000
0000
0000
0000
0000
0000
0000
0000
0000
0000
0000
0000
0000
0100
0000
0000
0000
0000
0000
0000
0000
0000
0000
0000
0000
0000
0000
0000
0000
0000
0000
0000
0000
0000
0000
0000
0000
0010
0000
0000
0000
0000
0000
0000
0000
0000
0000
0000
0000
0000
0000
0000
0000
0000
0000
0000
0000
0000
0000
0000
0000
1000
0000
0000
0000
0000
0000
0000
0000
0000
0000
0000
0000
0000
0000
0000
0000
0000
0000
0000
0000
0000
0000
0000
0000
0001
0000
0000
0000
0000
0000
0000
0000
0000
0000
0000
0000
0000
0000
0000
0000
0000
0000
0000
0000
0000
0000
0000
0000
0000
,
0000
0000
0000
0000
0000
0000
0000
0000
0000
0000
0000
0000
0000
0000
0000
0000
0000
0000
0000
0000
0000
0000
0000
1000
0000
0000
0000
0000
0000
0000
0000
0000
0000
0000
0000
0000
0000
0000
0000
0000
0000
0000
0000
0000
0000
0000
0000
0100
0000
0000
0000
0000
0000
0000
0000
0000
0000
0000
0000
0000
0000
0000
0000
0000
0000
0000
0000
0000
0000
0000
0000
0010
0000
0000
0000
0000
0000
0000
0000
0000
0000
0000
0000
0000
0000
0000
0000
0000
0000
0000
0000
0000
0000
0000
0000
0010
0000
0000
0000
0000
0000
0000
0000
0000
0000
0000
0000
0000
0000
0000
0000
0000
0000
0000
0000
0000
0000
0000
0000
0001
0000
0000
0000
0000
0000
0000
0000
0000
0000
0000
0000
0000
0000
0000
0000
0000
0000
0000
0000
0000
0000
0000
0000
1000
0000
0000
0000
0000
0000
0000
0000
0000
0000
0000
0000
0000
0000
0000
0000
0000
0000
0000
0000
0000
0000
0000
0000
0100
0000
0000
0000
0000
0000
0000
0000
0000
0000
0000
0000
0000
0000
0000
0000
0000
0000
0000
0000
0000
0000
0000
0000
0000
,
0000
0000
0000
0000
,
0000
0000
0000
0000
,
1000
0001
0100
0100
0010
1000
0001
0000
,
1000
0100
0010
0010
0001
1000
0100
0000
,
0010
0001
1000
1000
0010
0100
0001
0000
,
1000
0100
1000
0000
0001
0100
0001
0000
,
1000
0010
0100
0010
0100
0001
1000
0000
,
0100
0010
0001
0010
0001
1000
0010
0000
,
0100
0010
1000
0100
1000
0100
0010
0000
,
0001
0010
0100
1000
0001
1000
0001
0000
,
0100
0010
1000
1000
0001
0001
0100
0010
,
1000
0100
0010
0010
0001
0001
1000
0010
,
0100
0001
1000
1000
0100
0100
1000
0010
,
0100
0001
1000
1000
0001
0001
1000
0001
,
1000
0100
0100
0001
0100
0100
1000
0001
,
1000
0010
0010
0001
0010
0010
1000
0001
,
0100
0010
1000
0100
0010
0001
0100
0010
,
1000
0000
0001
0000
0010
0000
0100
0000
1000
0000
0010
0000
0100
0001
0100
0000
,
0000
0000
2002
0000
,
0000
0000
0000
0000
,
0000
0000
3003
0000
;
