#TITLE:GET UP'N MOVE;
#SUBTITLE:;
#ARTIST:S&K;
#TITLETRANSLIT:;
#SUBTITLETRANSLIT:;
#ARTISTTRANSLIT:;
#GENRE:;
#CREDIT:;
#MUSIC:GET UP'N MOVE.mp3;
#BANNER:GET UP'N MOVE.png;
#BACKGROUND:GET UP'N MOVE-bg.png;
#CDTITLE:;
#SAMPLESTART:0.000;
#SAMPLELENGTH:0.000;
#SELECTABLE:YES;
#OFFSET:-1.356;
#BPMS:0.000=132.040
,16.000=132.000
,47.000=136.000
,48.000=137.000
,50.000=132.000
,63.000=130.000
,64.000=132.000
,95.000=131.000
,96.000=127.000
,97.000=133.000
,99.000=132.000
,143.000=138.000
,144.000=132.000
,151.000=130.000
,152.000=132.000
;
#STOPS:;
#BGCHANGES:;
#FGCHANGES:;

//--------------- dance-single - HellKiteChaos ----------------
#NOTES:
     dance-single:
     HellKiteChaos:
     Challenge:
     13:
     0,0,0,0,0:
0000
0000
0000
0000
,
0000
0000
0000
0000
,
0000
0000
0000
0000
,
0000
0000
0000
0000
,
1000
0000
0100
0010
0100
0000
1000
0000
0100
1000
0100
0000
0001
0000
1000
0000
,
0001
0000
0100
0001
0100
0000
0001
0000
0100
0010
0100
0000
0010
0000
1000
0000
,
0001
0000
0010
0100
0010
0000
1000
0000
0010
0100
0010
0000
0001
0000
0010
0000
,
1000
0000
0100
1000
0100
0000
1000
0000
0010
0001
0010
0000
0100
0000
1000
0000
,
0001
0000
0100
0010
0100
0000
0001
0000
0010
0100
0010
0000
0001
0000
0100
0000
,
1000
0000
0010
0100
0010
0000
1000
0000
0100
1000
0100
0000
0010
0000
0001
0000
,
0100
0000
0010
1000
0010
0000
0001
0000
1000
0100
1000
0000
0100
0000
0010
0000
,
0001
0000
0100
0010
0100
0000
0010
0000
0100
0000
0001
0000
1001
0000
0000
0000
,
1000
0000
0100
0000
0000
0000
0210
0000
0000
0000
0320
0000
0000
0032
0000
0000
,
1003
0000
0010
0000
0000
0000
0120
0000
0000
0230
0000
0000
0301
0000
1000
0000
,
0100
0000
0010
0000
0000
0000
0120
0000
0000
0000
0230
0000
0000
2300
0000
0000
,
3001
0000
0000
0020
0000
0000
0000
0000
0000
0031
0000
0000
1000
0000
0001
0000
1000
0000
1100
0000
0000
0000
0000
0000
,
1000
0000
0001
0100
0000
0001
0010
0000
0001
1000
0000
0001
0100
0000
0001
0000
,
0000
0000
0001
0000
1000
0100
0000
1000
0001
0000
1000
0010
0000
1000
0001
0000
,
0000
0000
0001
0000
0100
0010
0000
0100
0001
0000
0100
0010
0000
0100
0001
0000
,
0000
0000
1000
0000
0100
0010
0000
0100
1000
0000
0100
0010
0000
0100
1000
0000
,
0001
0000
0010
0100
0000
1000
0100
0000
0010
0100
0000
1000
0100
0000
0010
0000
,
0001
0000
0100
0010
0000
0100
0001
0000
0100
0010
0000
0100
0001
0000
1000
0000
,
0001
0000
0100
0010
0000
1000
0001
0000
0100
0010
0000
1000
0100
0000
0010
0000
,
0001
0000
0000
0000
0000
0000
1000
0000
0000
0100
0000
0000
0000
0000
0000
0010
0000
0000
0001
0000
0000
0000
0000
0000
1000
0000
0000
0000
0001
0000
0000
0000
1000
0000
0000
0000
1100
0000
0000
0000
0000
0000
0000
0000
0000
0000
0000
0000
,
0001
0000
0010
0100
0010
0000
0001
0000
0010
0001
0010
0000
1000
0000
0001
0000
,
1000
0000
0010
1000
0010
0000
1000
0000
0010
0100
0010
0000
0100
0000
0001
0000
,
1000
0000
0100
0010
0100
0000
0001
0000
0100
0010
0100
0000
1000
0000
0100
0000
,
0001
0000
0010
0001
0010
0000
0001
0000
0100
1000
0100
0000
0010
0000
0001
0000
,
1000
0000
0010
0100
0010
0000
1000
0000
0100
0010
0100
0000
1000
0000
0010
0000
,
0001
0000
0000
0000
0000
0000
0100
0000
0000
0010
0000
0000
0100
0000
0000
0000
0000
0000
0001
0000
0000
0000
0000
0000
1000
0000
0000
0000
0001
0000
0000
0000
1000
0000
0000
0000
1100
0000
0000
0000
0000
0000
0000
0000
0000
0000
0000
0000
,
2000
0000
0010
0000
0000
0001
0000
0000
0010
0000
0000
0100
0000
0000
3001
0000
,
0000
0000
0002
0000
0000
0010
0000
0000
0100
0000
0000
0010
0000
0000
1003
0000
,
0000
0000
2000
0000
0000
0100
0000
0000
0001
0000
0000
0010
0000
0000
3001
0000
,
0000
0000
0002
0000
0000
0100
0000
0000
1000
0000
0000
0010
0000
0000
1003
0000
,
0001
0000
1000
0100
0000
1000
0100
0000
0010
0001
0000
1000
0100
0000
0010
0000
,
0001
0000
1000
0010
0000
1000
0010
0000
0100
0001
0000
1000
0010
0000
0100
0000
,
0001
0001
0100
0100
1000
1000
0010
0010
,
1001
0000
0000
0110
0000
0000
0001
1000
0001
0101
0000
0000
,
1000
0000
0010
0100
0000
0001
0100
0000
0010
1000
0000
0001
0100
0000
0001
0000
,
1000
0000
0100
0010
0000
0100
1000
0000
0100
0010
0000
0001
1000
0000
0100
0000
,
0010
0000
0001
1000
0001
0000
0100
0000
0010
0000
1000
0010
1000
0000
0001
0000
,
0001
0100
0100
1000
0100
0100
0001
1000
0001
2002
0000
0000
,
3003
0000
0000
0000
;
