#TITLE:EVER SNOW;
#SUBTITLE:;
#ARTIST:YOMA KOMATSU;
#TITLETRANSLIT:;
#SUBTITLETRANSLIT:;
#ARTISTTRANSLIT:;
#GENRE:;
#CREDIT:;
#MUSIC:ever snow.mp3;
#BANNER:ever snow.png;
#BACKGROUND:ever snow-bg.png;
#CDTITLE:;
#SAMPLESTART:0.878;
#SAMPLELENGTH:14.069;
#SELECTABLE:YES;
#OFFSET:-0.050;
#BPMS:0.000=145.000;
#STOPS:;
#DISPLAYBPM:145.000;
#BGCHANGES:;
#FGCHANGES:;

//--------------- dance-single - HellKiteChaos ----------------
#NOTES:
     dance-single:
     HellKiteChaos:
     Challenge:
     13:
     0,0,0,0,0:
0000
0000
0000
0000
,
0000
0000
0000
0000
,
0000
0000
0000
0000
,
0000
0000
0000
0000
,
0000
0000
0000
0000
,
1000
0000
0000
0010
0000
0000
0100
0000
0010
0000
0000
0100
0000
0000
0001
0000
,
0100
0000
0000
0010
0000
0000
1000
0000
0001
0000
0000
0100
0000
0000
0010
0000
,
1000
0000
0000
0001
0000
0000
0010
0000
0001
0000
0000
1000
0000
0000
0001
0000
,
0100
0000
0000
0010
0000
0000
0100
0000
0001
0000
0000
1000
0000
0000
0100
0000
,
0010
0000
0100
0000
0010
0000
0001
1000
0001
1000
0000
0010
0000
0100
0001
0000
,
1000
0000
0000
0001
0100
0000
0010
0000
0100
0000
0010
0000
1000
0000
0001
1000
,
0100
0000
0000
0100
0010
0000
0100
0000
0010
0000
0001
0000
2000
0000
0000
0000
,
3001
0000
0000
0100
0010
0000
0100
0000
0001
0000
1000
0000
0010
0000
1000
0001
,
0010
0000
0000
0100
0010
0000
0100
0000
2200
0000
3300
0000
0202
0000
0303
0000
,
0001
0000
0000
0100
0010
0000
0100
0000
0010
0000
1000
0000
0001
0000
1000
0001
,
0100
0000
0000
0010
1000
0000
0001
0000
0100
0000
0001
0000
0002
0000
0000
0000
,
1003
0000
0000
0100
0010
0000
0001
0000
1000
0000
0010
0000
0100
0000
0001
1000
,
0001
0000
0000
0100
0000
0000
0010
0000
1000
0000
1000
0000
0010
0000
0010
0000
,
0100
0000
0000
0100
0000
0000
0010
0000
0000
0010
0000
0000
0100
0000
0001
0000
,
1000
0000
0000
1000
0000
0000
0001
0000
0000
0001
0000
0000
0010
0000
0100
0000
,
0010
0000
0000
0010
0000
0000
0001
0000
0000
0001
0000
0000
1000
0000
0010
0000
,
0100
0000
0000
0100
0000
0000
0010
0000
0000
0010
0000
0000
0100
0000
0010
0000
,
1000
0000
0100
1000
0100
0000
1000
0000
0100
0000
0100
0000
0010
0000
0000
0000
,
0001
0000
0100
0001
0100
0000
0001
0000
0100
0000
0100
0000
0010
0000
0000
0000
,
1000
0000
0001
0010
0001
0000
1000
0000
0100
0000
0100
0000
0010
0000
0001
0000
,
1000
0000
0100
0000
0010
0000
0000
0100
0000
0010
0000
0000
0001
1000
0001
1000
,
0100
0010
0100
0010
0001
1000
0010
0200
,
0000
0301
0100
0010
1000
0001
1000
0002
,
0000
0013
0001
1000
0100
1000
0100
0010
,
0002
0000
0203
0000
0301
1000
1100
0000
,
0010
0001
0010
1000
0010
0100
1000
0001
,
1000
0010
0001
0010
0100
0010
1000
0001
,
0100
0100
0010
1000
0001
0001
0100
0001
,
1001
0000
0000
0101
0000
0000
1100
0000
0000
0000
0000
0000
0000
0000
0000
0000
,
2100
0000
0000
0001
0000
0000
3002
0000
0000
0103
0000
0000
0001
0000
1000
0000
,
1020
0000
0000
1000
0000
0000
0230
0000
0000
0301
0000
0000
1000
0000
0100
0000
,
0012
0000
0000
0010
0000
0000
2003
0000
0010
0000
0000
0010
0000
0000
3001
0000
,
0100
0000
0010
0000
0100
0000
0001
0000
1000
0001
1000
0001
0100
0000
0010
0000
,
1000
0000
0000
0001
1000
0000
0001
0000
0100
0000
0000
0010
0100
0000
0010
0000
,
1000
0000
0000
0100
0010
0000
0001
0000
1000
0000
0100
0000
1000
0000
0010
0000
,
0100
0000
0000
0100
0001
0000
0100
0000
0010
0000
0000
0010
1000
0000
0001
0000
,
0010
0000
0000
0000
0011
0000
0000
0000
1100
0000
0000
0000
0001
0100
0001
0100
,
0010
0010
1000
0001
0100
0001
2000
0000
,
3100
0100
0010
0001
1000
1000
0200
0000
,
1300
0001
0101
0000
1000
0001
0011
0000
,
0110
0000
0000
0100
0000
0000
0010
0000
0010
0000
0001
0000
1000
0001
1000
0001
,
0010
0100
1000
0100
0010
0001
2000
0000
,
3010
0100
0001
0100
0010
1000
0002
0000
,
2003
0000
0000
0010
0000
0000
3020
0000
0100
0000
0000
0230
0000
0000
0302
0000
,
2000
0000
0000
3003
,
0001
0000
0000
0100
0000
0000
0101
0000
0001
0000
1000
0010
2000
0000
0001
0000
,
3001
0000
0000
1000
0000
0000
1100
0000
0100
0000
0010
0001
0010
0000
0001
0000
,
1001
0000
0000
0101
0000
0000
0012
0000
1000
0000
0000
0000
0103
0000
0010
0000
,
1000
0010
0000
1000
0001
0000
1000
0100
0000
1000
0010
0000
0100
0000
2002
0000
,
0000
3003
0000
0000
;
