#VERSION:0.83;
#TITLE:DROP OUT;
#SUBTITLE:;
#ARTIST:NW260;
#TITLETRANSLIT:;
#SUBTITLETRANSLIT:;
#ARTISTTRANSLIT:;
#GENRE:Dance Dance Revolution Solo 2000,Dance Dance Revolution 4th Mix;
#CREDIT:;
#MUSIC:DROP OUT.mp3;
#BANNER:DROP OUT.png;
#BACKGROUND:DROP OUT-bg.png;
#CDTITLE:;
#SAMPLESTART:0.000;
#SAMPLELENGTH:0.000;
#SELECTABLE:YES;
#OFFSET:-0.040;
#BPMS:0.000=260.000;
#STOPS:;
#SPEEDS:0.000=1.000=0.000=0;
#SCROLLS:0.000=1.000,
336.500=0.200,
342.000=0.300,
342.500=0.400,
343.000=0.500,
343.500=0.600,
344.000=0.700,
344.500=0.900,
345.000=1.000
;
#TICKCOUNTS:0.000=0;
#TIMESIGNATURES:0.000=4=4;
#COMBOS:0.000=1;
#DISPLAYBPM:260.000;
#BGCHANGES:;
#FGCHANGES:;

//--------------- dance-single - HellKiteChaos ----------------
#NOTEDATA:;
#STEPSTYPE:dance-single;
#DESCRIPTION:HellKiteChaos;
#DIFFICULTY:Challenge;
#METER:16;
#RADARVALUES:0,0,0,0,0;
#NOTES:
0000
0000
0000
0000
,
0000
0000
0000
0000
,
0000
0000
0000
0000
,
0000
0000
0000
0000
,
0000
0000
0000
0000
,
0000
0000
0000
0000
,
0000
0000
0000
0000
,
0000
0000
0000
0000
,
1001
0001
0100
0000
,
0001
1000
0000
1000
0000
0000
0000
0000
,
1001
1000
0100
0000
,
1000
0001
0000
0001
0000
0000
1000
0000
,
1001
0001
0100
0001
,
0010
0001
0100
0010
,
1000
0100
1000
0010
,
1000
0100
0010
0001
,
1000
0100
0010
0100
0010
0001
0100
0010
,
0100
0010
1000
0001
0000
2002
0000
3003
,
1000
0000
0001
0100
0001
0000
1000
0010
,
1000
0010
0000
0100
0010
0000
0010
0100
,
0001
0000
1000
0100
1000
0000
0001
0010
,
0001
0010
0000
0100
0010
0000
0010
0100
,
1000
0000
0100
0010
0001
0000
1000
0100
,
1000
0100
0000
0010
0100
0000
0100
0010
,
0001
0000
0100
0010
1000
0000
0001
0100
,
0001
0100
0000
0110
0000
0101
0000
0010
,
1000
0010
1000
0001
1000
0010
1000
0000
,
0001
0010
0001
1000
0001
0010
0001
0000
,
1000
0100
1000
0001
1000
0100
1000
0000
,
0001
0100
0001
1000
0001
0100
0001
0000
,
0100
0000
0010
0000
0000
1000
0001
1000
,
0001
0000
0100
0000
0000
0001
1000
0001
,
1000
0000
0010
0000
0000
1000
0001
0100
,
0000
0101
0000
1001
0000
1000
0100
1000
,
0001
0010
0100
0010
0001
0010
0100
0000
,
1000
0100
0010
0100
1000
0100
0010
0000
,
0001
0100
0010
0100
0001
0100
0010
0000
,
1000
0010
0100
0010
1000
0010
0100
0000
,
0110
0000
0101
0000
0001
1000
0001
1000
,
0010
0000
1010
0000
1000
0010
1000
0001
,
0010
0000
0011
0000
0001
1000
0100
0010
,
0000
0011
0000
1001
0000
0001
0100
0001
,
1000
0010
0100
0001
1000
0100
0010
0001
,
1000
0010
0100
0001
0000
2002
0000
3003
,
0001
0000
0100
0010
1000
0000
0001
0010
,
0001
0010
0000
0011
0000
0001
1000
0001
,
1000
0000
0100
0010
0001
0000
1000
0010
,
1000
0010
0000
1010
0000
1000
0001
1000
,
0001
0000
0010
0100
1000
0000
0001
0100
,
0001
0100
0000
0101
0000
0001
1000
0001
,
1000
0000
0010
0100
0001
0000
1000
0100
,
1000
0100
0000
1100
0000
1000
0001
0000
,
0101
1001
0101
0011
,
0001
0100
0001
1000
0001
0010
0001
0000
,
1100
1001
1100
1010
,
1000
0100
1000
0001
1000
0010
1000
0000
,
0101
1001
0101
0011
,
1100
1001
1100
1010
,
1000
0010
0100
0001
0100
0001
0010
0100
,
0010
0100
1000
0010
0100
0001
1000
0001
,
0000
0000
1000
0000
0001
1000
0100
0000
,
1000
1100
1001
0101
,
1001
0000
0001
0000
1000
0001
0100
0000
,
0001
0101
1001
1100
,
1001
0000
2000
0000
3100
0000
0100
1000
,
0100
0010
0001
0000
2000
0000
3100
0010
,
0001
1000
0002
0000
0103
0000
0001
0100
,
0010
1000
0000
1010
0000
1001
0000
1000
,
0100
0000
1100
0000
1001
0000
1000
0001
,
0010
0000
0101
0000
1001
0000
1000
0001
,
0100
0000
1010
0000
1001
0000
0001
1000
,
0100
0000
1100
0000
1001
0000
0010
0001
,
1000
0001
2000
0000
3200
0000
0000
0310
,
0001
0010
0002
0000
0203
0000
0000
0310
,
1000
0010
2000
0000
3200
0000
0000
0310
,
0001
0010
0000
0011
0000
1001
0000
0001
,
0100
0001
1000
0000
1000
0000
1100
0000
,
1100
0001
0001
0101
,
0101
1001
0101
1010
,
1001
1100
0011
0110
,
1100
1000
1000
1100
,
1001
0001
0001
0101
,
1001
0000
1000
0010
0100
0001
0100
0001
,
1000
0100
1000
0100
0010
0001
1000
0001
,
0100
0020
0000
0000
0000
0000
0000
0000
,
0000
0000
0000
0000
,
0030
0000
1010
0000
1001
0000
0001
0100
,
0001
0100
0010
0000
1010
0000
1000
0001
,
0100
0001
0010
0000
0011
0000
0001
1000
,
0100
1000
0010
0000
1010
0000
0101
0000
,
1010
0000
1100
0000
1001
0000
0001
0010
,
0001
1000
0100
0000
1100
0000
1000
0001
,
1000
0010
0100
0000
0110
0000
0101
0000
,
1010
1100
1001
0000
,
0000
0000
1000
0010
0100
0001
0100
0001
,
0010
0100
1000
0100
1000
0010
1000
0010
,
0100
0001
0100
0001
1000
0100
1000
0100
,
0010
0001
0010
0001
1000
0010
1000
0010
,
0100
0010
0100
0010
1000
0001
1000
0100
,
0010
0001
1000
0001
0100
0010
1000
0001
,
0010
0100
1000
0010
0100
0001
1000
0100
,
0010
0001
0100
0010
1000
0001
1000
0100
,
0010
0001
0000
1001
0000
1100
0000
1000
,
0001
1000
0000
1001
0000
0101
0000
0001
,
1000
0001
0000
1100
0000
1001
0000
0110
,
0000
2002
0000
0000
0000
0000
0000
0000
,
3003
0000
0000
0000
;
