#VERSION:0.83;
#TITLE:DREAM A DREAM;
#SUBTITLE:;
#ARTIST:CAPTAIN JACK;
#TITLETRANSLIT:;
#SUBTITLETRANSLIT:;
#ARTISTTRANSLIT:;
#GENRE:;
#CREDIT:;
#MUSIC:DREAM A DREAM.mp3;
#BANNER:DREAM A DREAM.png;
#BACKGROUND:DREAM A DREAM-bg.png;
#CDTITLE:./CDTITLES/DANCE MANIA 12.PNG;
#SAMPLESTART:63.120;
#SAMPLELENGTH:12.000;
#SELECTABLE:YES;
#OFFSET:-1.936;
#BPMS:0.000=141.000;
#STOPS:;
#SPEEDS:0.000=1.000=0.000=0;
#SCROLLS:0.000=1.000,
44.000=0.100,
44.500=0.200,
45.000=0.300,
45.500=0.400,
46.000=0.500,
46.500=0.600,
47.000=0.800,
47.500=1.000
;
#TICKCOUNTS:0.000=0;
#TIMESIGNATURES:0.000=4=4;
#COMBOS:0.000=1;
#DISPLAYBPM:141.000;
#BGCHANGES:;
#FGCHANGES:;

//--------------- dance-single - HellKiteChaos ----------------
#NOTEDATA:;
#STEPSTYPE:dance-single;
#DESCRIPTION:HellKiteChaos;
#DIFFICULTY:Challenge;
#METER:11;
#RADARVALUES:0,0,0,0,0;
#NOTES:
0000
0000
0000
0000
,
0000
0000
0000
0000
,
0000
0000
0000
0000
,
0000
0000
0000
0000
,
1000
0000
1000
0000
1000
0000
1000
0001
,
0100
0010
1000
0001
1000
0000
1000
0010
,
0100
0001
1000
0001
1000
0000
1000
0010
,
1000
0001
1000
0100
0000
0000
0000
0000
,
1000
0100
0000
0100
0000
0100
0010
0001
,
0000
0001
0000
0001
0000
1000
0010
0100
,
0000
0100
0001
1000
0100
0010
0001
1000
,
2002
0000
0000
3003
,
1001
1000
0100
1000
0010
0100
0020
0000
,
1030
0100
0020
0000
0130
1000
0020
0000
,
0130
0001
0010
0100
0010
0001
0010
0001
,
0100
0000
0010
0000
0100
0000
0001
0000
0010
0000
0001
1000
0001
0000
1000
0000
,
1001
0001
0010
0001
0100
0010
0200
0000
,
0301
0010
0200
0000
0310
0001
0200
0000
,
0310
1000
0100
0010
0100
1000
0100
1000
,
0010
0000
0100
0000
0010
0000
1000
0000
0100
0000
1000
0001
1000
0000
0001
0000
,
1000
0100
0010
0001
1000
0001
2000
0000
,
3010
0100
0002
0000
0013
0100
2000
0000
,
3010
0100
0010
0001
0010
0100
0010
1000
,
0001
0100
0010
1000
0002
1000
1003
0000
,
0001
0010
0100
1000
0001
1000
0002
0000
,
0103
0010
2000
0000
3100
0010
0002
0000
,
0103
0010
0100
1000
0100
0010
0100
0001
,
1000
0000
0010
0000
0100
0001
1000
0000
2000
0000
0001
0000
3001
0000
0000
0000
,
0001
0100
0010
1000
2000
0100
3200
0000
,
0320
0001
0032
0000
0103
0100
0020
1000
,
1030
0001
1000
0010
0100
0001
2000
0001
,
3002
0103
2000
3100
2002
0000
3003
0000
,
1000
0010
0100
0001
0002
0010
0023
0000
,
0230
1000
2300
0000
3010
0010
0200
0001
,
0301
1000
0001
0100
0010
1000
0002
1000
,
2003
3100
0002
0013
2002
0000
3003
1000
,
0001
0000
0000
0001
0100
0000
0000
0100
0010
0000
0000
0010
1000
0000
0100
0000
,
0010
0000
0000
0010
0001
0000
0000
0001
1000
0000
0000
1000
0100
0000
0100
0000
,
0010
0000
0000
0010
0001
0000
0000
0001
1000
0000
0000
1000
0010
0000
0010
0000
,
0100
0000
0001
0000
1000
0000
0010
0000
0100
0000
0010
0000
1000
0001
1000
0000
,
0001
0000
0000
0001
1000
0000
0000
1000
0010
0000
0000
0010
0100
0000
0100
0000
,
0001
0000
0000
0001
0010
0000
0000
0010
0100
0000
0000
0100
1000
0000
1000
0000
,
0001
0000
0000
0001
0100
0000
0000
0100
0010
0000
0000
0010
1000
0000
0100
0000
,
0010
0000
0001
0000
0100
0000
0010
0000
1000
0000
0000
0001
1000
0000
1000
0000
,
0200
0300
0200
0300
0200
0300
0200
0300
,
0020
0030
0020
0030
0020
0030
0020
0030
,
0010
0001
1000
0010
0100
0001
0010
0100
,
2000
3200
2300
3200
2300
3200
2300
3200
,
2300
0000
0000
0000
,
3000
0000
0000
0000
;
