#TITLE:DANCING ALL ALONE;
#SUBTITLE:;
#ARTIST:SMiLE.dk;
#TITLETRANSLIT:;
#SUBTITLETRANSLIT:;
#ARTISTTRANSLIT:;
#GENRE:;
#CREDIT:;
#MUSIC:DANCING ALL ALONE.mp3;
#BANNER:DANCING ALL ALONE.png;
#BACKGROUND:DANCING ALL ALONE-bg.png;
#CDTITLE:;
#SAMPLESTART:42.889;
#SAMPLELENGTH:10.286;
#SELECTABLE:YES;
#OFFSET:-0.032;
#BPMS:0.000=140.000;
#STOPS:;
#DISPLAYBPM:140.000;
#BGCHANGES:;
#FGCHANGES:;

//--------------- dance-single - HellKiteChaos ----------------
#NOTES:
     dance-single:
     HellKiteChaos:
     Challenge:
     12:
     0,0,0,0,0:
0000
0000
0000
0000
,
0000
0000
0000
0000
,
0000
0000
0000
0000
,
0000
0000
0000
0000
,
0000
0000
0000
0000
,
1001
0001
0100
0001
0100
0010
1000
0001
,
0010
0001
0010
0100
1000
0100
1000
0001
,
0100
0010
0100
0001
0100
0010
0100
0001
,
0010
0100
0010
0001
0010
0100
1000
0000
,
1000
0010
0100
0010
0100
0001
0100
0010
,
1000
0000
0001
1000
0000
1000
0001
0000
,
0010
0100
1000
0100
1000
0001
0010
0100
,
1000
0000
0001
0000
0100
0000
0010
0000
0000
0000
1000
0001
0100
0000
0001
1000
,
0100
0010
0010
0001
1000
0010
0100
0001
,
1000
0000
0001
0010
0000
0010
0100
1000
,
0001
0100
0010
1000
0010
1000
0001
0100
,
0020
0000
1000
0000
0000
0000
1030
1000
,
0002
0000
2003
0000
3001
0010
0100
1000
,
0001
0000
1000
0000
0000
0000
1000
0000
0000
0000
0002
0003
0200
0300
0020
0030
,
2000
3000
0000
0000
0001
0000
0010
0000
0001
0000
0010
0000
0001
0000
0000
0000
,
1000
0100
1000
0001
0010
0100
0000
0100
,
1000
0000
0001
0100
0010
0000
1000
0001
,
0010
0000
0000
0000
0011
0000
0000
0000
0000
0000
0002
0003
0020
0030
0200
0300
,
1100
0001
0100
0000
0010
0100
0001
1000
,
0010
0000
1010
0000
0001
1000
1100
0000
,
1000
0000
0100
0000
1000
0000
0100
0010
0001
0000
0010
0000
0001
0000
1000
0010
,
0100
0000
0010
0000
0100
0000
0001
1000
0100
0000
1000
0000
0100
0000
0010
0001
,
1000
0000
0001
0000
1000
0000
0100
0010
0001
0000
0010
0000
0001
0000
1000
0001
,
0100
0000
0001
0000
0100
0000
0010
1000
0010
0000
0100
0000
0100
0000
0100
0000
,
0001
0000
1000
0000
0001
0000
0100
0001
1000
0000
0001
0000
1000
0000
0100
1000
,
0001
0000
0010
0000
0001
0000
1000
0010
0100
0000
0010
0000
0100
0000
0001
0000
,
1000
0000
0100
1000
0100
0000
0010
0001
0010
0000
0001
0000
0100
0000
0010
0000
,
2000
0001
0000
3100
,
0000
0100
0100
1000
1000
0001
0010
0001
,
1000
0000
0000
0000
0010
0000
0100
0000
0000
0000
0010
0100
0001
0000
1000
0000
,
0001
1000
0100
0010
0001
0100
0010
1000
,
0200
0000
0000
0000
0310
0000
0010
0000
0000
0000
0001
1000
0010
0000
1000
0001
,
0100
0010
0010
1000
1000
0001
0100
0010
,
1000
0000
0000
0000
0001
0000
0010
0000
0000
0000
0100
0010
0100
0000
1000
0000
,
0001
1000
0010
0100
0001
0010
0100
1000
,
0002
0000
0000
0000
0000
0000
1000
1003
,
2002
0000
0000
0000
,
3003
0000
0000
0000
;
