#TITLE:D2R;
#SUBTITLE:;
#ARTIST:NAOKI;
#TITLETRANSLIT:;
#SUBTITLETRANSLIT:;
#ARTISTTRANSLIT:;
#GENRE:Dance Dance Revolution 7th Mix -Max2-,Dancing Stage Euromix 2;
#CREDIT:;
#MUSIC:D2R.mp3;
#BANNER:D2R.png;
#BACKGROUND:D2R-bg.png;
#CDTITLE:;
#SAMPLESTART:24.579;
#SAMPLELENGTH:12.936;
#SELECTABLE:YES;
#OFFSET:-0.020;
#BPMS:0.000=160.024;
#STOPS:;
#DISPLAYBPM:160.000;
#BGCHANGES:;
#FGCHANGES:;

//--------------- dance-single - HellKiteChaos ----------------
#NOTES:
     dance-single:
     HellKiteChaos:
     Challenge:
     13:
     0,0,0,0,0:
0000
0000
0000
0000
,
0002
0000
0000
1000
0000
0000
1003
0000
,
2000
0000
0000
0010
0000
0000
3010
0000
,
0020
0000
0000
0100
0000
0000
0130
0000
,
0000
0000
0100
0000
0000
0000
0100
0000
0010
0000
1000
0000
0001
1000
0001
1000
,
0001
1000
0001
0100
0010
0100
0001
0000
,
1000
0100
0010
0100
1000
0001
1000
0000
,
0010
0100
0001
0010
0100
1000
0001
1000
,
0000
0001
0000
0100
0000
0010
1001
0000
,
1000
0000
0001
0100
0001
0000
1000
0000
0010
0000
0010
0000
0110
0000
0000
0000
,
0100
0100
0001
0001
1000
0100
0110
0000
,
0010
0001
1000
0000
0010
0100
0001
0000
,
1000
0100
1000
0100
0100
0100
0100
0010
,
0001
0100
0001
0100
0010
1000
0001
0000
,
0100
0010
0100
0001
0010
0100
1000
1000
,
0000
0001
1001
0000
1000
0100
2000
0000
,
0010
0000
0000
0010
0000
0000
0020
0000
0000
0000
0000
0000
3030
0000
0000
0000
,
0100
0000
0001
0000
0010
0000
0100
1000
0100
0000
1000
0000
0010
0000
0000
0000
,
1000
0000
0100
0000
0010
0000
0001
1000
0001
0000
0100
0000
0010
0000
0010
0000
,
1000
0000
0001
0000
0010
0000
0100
0010
0100
0000
1000
0000
0010
0000
0000
0000
,
0100
0010
1000
0001
0000
1000
0100
0100
,
2000
0000
0010
3010
0100
0000
0002
0000
,
0010
0013
0100
1000
0000
0001
0010
0100
,
1000
0100
0000
1000
0010
0100
0010
0100
,
0001
1000
0010
1000
0001
0100
0010
1000
,
0002
0000
0000
0000
,
1003
1000
0000
0000
,
0001
0000
0100
0000
0010
0000
1000
0100
0000
0010
0000
0001
0100
0000
0010
0000
,
0100
0000
0001
0000
0010
0000
0100
1000
0000
0010
0000
0100
0001
0100
0001
0100
,
0010
0000
0000
0010
1000
0000
0001
0000
0000
0100
0000
0000
0010
0000
1000
0000
,
0001
0001
0100
0100
0001
0100
1000
0100
,
0001
0000
0010
0000
1000
0000
0010
0001
0000
1000
0000
0010
0100
0000
0001
0000
,
0100
0000
1000
0000
0100
0000
0001
1000
0000
0000
0000
0000
0001
0000
0001
0000
,
1000
0100
0010
0100
1000
0001
0100
0000
,
0010
1000
0001
0100
0010
0100
0001
0000
,
1000
0100
0100
0000
0010
0001
0001
0000
,
1000
0100
1000
0001
0010
0100
1000
0001
,
0000
0100
0001
0100
0010
1000
0100
0000
,
1000
0100
1000
0100
0010
0001
0100
0100
,
0000
0010
0110
0000
0100
0001
2000
0000
,
0100
0000
0000
0100
0000
0000
0200
0000
0000
0000
0000
0000
3300
0000
0000
0000
,
0010
0000
0000
0010
0001
0000
0000
0001
1000
0000
0000
1000
0010
0000
0000
0010
,
0100
0001
1000
0010
0100
0010
0100
0001
,
1000
0000
0000
1000
0100
0000
0000
0100
0010
0000
0000
0010
0001
0000
0000
0001
,
1000
0000
0101
0000
1000
0000
1100
1000
,
0001
0000
0100
0020
0000
1030
0001
1000
,
0010
0200
0000
0310
0100
0001
1000
0010
,
0100
0001
0001
1000
0100
0100
0010
0001
,
0001
0000
1000
0100
0010
0000
0001
0100
0010
0000
1000
0000
0001
0000
0100
0000
,
0010
0000
1000
0100
1000
0010
1000
0010
,
0000
0100
0000
0100
0001
1000
0010
0100
,
0001
0000
0001
0010
0000
0010
1000
0000
,
1000
0100
0000
0100
0001
0010
0100
1000
,
0001
0001
0001
0100
0010
0000
1000
1000
,
1000
0100
0010
0011
0000
0001
1000
0100
,
0010
0000
0000
0000
0001
0000
1000
0000
0000
0000
0100
0000
0000
0010
0000
0000
,
0001
0000
0000
1000
0000
0000
0001
0000
0100
0000
0100
0000
0010
0000
0010
0000
,
1010
0000
0000
0000
1000
0000
0010
1000
0010
0000
0100
0000
0100
0000
0000
0000
,
0101
0000
0000
0000
0001
0000
0100
0001
0100
0000
0010
0000
1010
0000
1000
0000
,
0000
0000
1000
0000
0100
0000
0010
0001
0010
0000
0100
1000
0100
0000
0010
0001
,
1000
0000
0001
0000
0000
0000
0100
0000
0010
0000
0100
0000
0010
1000
0001
0100
,
0020
1000
2000
0000
0000
0000
0000
0000
,
3030
0000
0000
0000
;
