#TITLE:COW GIRL;
#SUBTITLE:;
#ARTIST:BAMBEE;
#TITLETRANSLIT:;
#SUBTITLETRANSLIT:;
#ARTISTTRANSLIT:;
#GENRE:;
#CREDIT:;
#MUSIC:COW GIRL.mp3;
#BANNER:COW GIRL.png;
#BACKGROUND:COW GIRL-bg.png;
#CDTITLE:;
#SAMPLESTART:33.089;
#SAMPLELENGTH:12.174;
#SELECTABLE:YES;
#OFFSET:-0.046;
#BPMS:0.000=138.000;
#STOPS:;
#DISPLAYBPM:138.000;
#BGCHANGES:;
#FGCHANGES:;

//--------------- dance-single - HellKiteChaos ----------------
#NOTES:
     dance-single:
     HellKiteChaos:
     Challenge:
     14:
     0,0,0,0,0:
0000
0000
0000
0000
,
0000
0000
0000
0000
,
0001
0000
0000
0001
1000
0000
0000
1000
0001
0000
0000
0001
1000
0000
0000
1000
,
0100
0000
0000
0100
1000
0000
0000
1000
0100
0000
0000
0100
1000
0000
0000
1000
,
0001
0000
0000
0001
1000
0000
0000
1000
0001
0000
0000
0001
1000
0000
0000
1000
,
0010
0000
0000
0010
1000
0000
0000
1000
0010
0000
0000
0010
1000
0000
0000
1000
,
0001
0000
0000
0000
0000
0000
0000
0000
0000
0000
0000
0000
0000
0000
0000
0001
1000
0001
1000
0000
0000
1000
0000
0000
,
0100
0000
0010
0001
0010
0001
1000
0010
,
0100
0001
0000
0001
1000
0000
0100
1000
,
0001
0000
0000
0001
0100
0000
0000
0100
0010
0000
0000
0010
1000
0000
0000
1000
,
0001
0100
0010
0100
0010
1000
0001
0100
,
0010
0000
1000
0100
1000
0010
0100
0010
,
0100
0001
0000
0001
1000
0100
0100
0010
,
0001
0000
0000
0001
1000
0000
0000
1000
0100
0000
0000
0100
0010
0000
0000
0010
,
0001
0000
0000
1000
0000
0000
0100
0000
0000
1000
0000
0000
0001
0000
0000
1000
0100
1000
0100
0000
0000
1000
0000
0000
,
0100
0000
0010
0001
1000
0000
0010
1000
,
0001
0000
0010
0001
1000
0000
0010
1000
,
0001
0000
0100
0010
1000
0100
0010
0000
,
0001
0000
0000
0001
0010
0000
0000
0010
0100
0000
0000
0100
1000
0000
0000
0000
,
1000
0010
1000
0010
0100
0100
0100
0000
,
0001
0100
0001
0100
0010
0010
0010
1000
,
0001
0001
1000
1000
0100
0100
0010
0010
,
0011
0000
0000
0000
1100
0000
0000
0000
1001
0000
0000
0001
1000
0000
1000
0000
,
0001
0000
0100
0010
1000
0000
0100
0010
0001
0000
0100
0010
1000
0000
0100
0010
,
0001
0000
0100
0010
1000
0000
0100
0010
0001
0000
0100
0010
1000
0000
0100
0010
,
0001
0000
1000
0010
0100
0000
0001
0010
0100
0000
1000
0010
0100
0000
0001
0010
,
0100
0000
1000
0010
0100
0000
0001
0010
0100
0000
1000
0000
0001
0000
1000
0000
,
0001
0000
0000
0000
1000
0000
0010
1000
0100
0000
0010
0001
0100
0000
0010
1000
,
0100
0000
0010
0001
0100
0000
0010
1000
0100
0000
0010
0001
0100
0000
0010
1000
,
0100
0000
0000
0000
0010
0000
0000
0010
0001
0000
0000
0000
1000
0000
0000
0000
,
1001
0100
0100
0000
0010
0010
0100
0100
,
0002
0000
1003
0100
0010
0100
1000
0000
,
0020
0000
1030
0010
0100
0010
2000
0000
,
3001
0100
0010
1000
0001
0100
0010
0100
,
0001
1000
0010
0100
0001
1000
0010
0100
0001
0010
0100
1000
0001
0010
0100
1000
,
0002
0000
0003
1000
0100
0000
0010
0000
0100
0000
0100
0000
0020
0000
0000
0000
,
0032
0000
0003
0100
0010
0000
1000
0000
1000
0000
0100
0000
0020
0000
0000
0000
,
0032
0000
0003
1000
0010
0000
0100
0000
0010
0000
0010
0000
2000
0000
0000
0000
,
3002
0000
0003
0010
0100
0000
0100
0000
2002
0000
0000
0000
0000
0000
0000
0000
,
3003
0000
0000
1000
0001
0000
0001
0000
1000
0000
0001
0100
0010
0000
1000
0100
,
0010
0000
0001
0100
0010
0000
1000
0100
0010
0000
0001
0100
0010
0000
1000
0100
,
0010
0000
0001
0100
0010
0000
1000
0100
0010
0000
0001
0010
0100
0000
1000
0010
,
0100
0000
0001
0010
0100
0000
1000
0010
0100
0000
0001
0010
0100
0000
1000
0010
,
0100
0000
0010
0000
0100
0000
0001
0000
1000
0000
0000
0000
0001
0000
0010
0001
,
0100
0000
0010
1000
0100
0000
0010
0001
0100
0000
0010
1000
0100
0000
0010
0001
,
0100
0000
0010
1000
0100
0000
0010
0001
0100
0000
0000
0000
0010
0000
0000
1000
,
0001
0000
0100
0000
0010
0010
1000
1000
,
0001
0100
0010
0100
2002
0000
0000
0000
,
0000
3003
0000
0000
;
