#TITLE:CAT'S EYE (Ventura Mix);
#SUBTITLE:;
#ARTIST:E-ROTIC;
#TITLETRANSLIT:;
#SUBTITLETRANSLIT:;
#ARTISTTRANSLIT:;
#GENRE:;
#CREDIT:;
#MUSIC:CAT'S EYE (Ventura Mix).mp3;
#BANNER:CAT'S EYE (Ventura Mix).png;
#BACKGROUND:CAT'S EYE (Ventura Mix)-bg.png;
#CDTITLE:;
#SAMPLESTART:45.009;
#SAMPLELENGTH:14.358;
#SELECTABLE:YES;
#OFFSET:-0.045;
#BPMS:0.000=158.795;
#STOPS:;
#DISPLAYBPM:159.000;
#BGCHANGES:;
#FGCHANGES:;

//--------------- dance-single - HellKiteChaos ----------------
#NOTES:
     dance-single:
     HellKiteChaos:
     Challenge:
     16:
     0,0,0,0,0:
0000
0000
0000
0000
,
0000
0000
0000
0000
,
0000
0000
0000
0000
,
0000
0000
0000
0000
,
1000
0001
1000
0000
0010
0100
0010
0000
0100
0001
0100
0001
0100
0001
0100
0000
,
0010
0100
0010
0000
1000
0001
1000
0000
0100
1000
0100
1000
0100
1000
0100
0000
,
0010
0000
0001
0000
1000
0010
1000
0010
0000
0100
0001
0000
1000
0000
0010
0000
,
0100
0000
0100
0000
0010
1000
0010
1000
0000
0001
0010
0100
1000
0001
0010
0100
,
1000
0001
1000
0000
0100
0010
0100
0000
0010
0001
0010
0001
0010
0001
0010
0000
,
0100
0010
0100
0000
1000
0001
1000
0000
0010
1000
0010
1000
0010
1000
0010
0000
,
0100
0000
0001
0000
1000
0100
1000
0100
0000
0010
0001
0000
1000
0000
0100
0000
,
0010
0000
0010
0000
0100
1000
0100
1000
0001
0010
0100
1000
0002
0000
0000
0000
,
1003
0001
0100
0100
0010
0100
0001
0001
,
1000
0000
0100
0000
0010
0000
0010
0000
0100
0000
1000
0000
0001
0000
1000
0001
,
0100
0100
0010
0010
1000
1000
0100
0010
,
1000
0000
0010
0000
0001
0000
0010
0000
0001
0000
1000
0001
1000
0000
0010
0000
,
0100
0001
1000
1000
0010
1000
0001
0001
,
0010
0100
0010
0010
0001
1000
0100
0100
,
0010
0100
0100
1000
0001
0100
0100
0010
,
1000
0001
0010
0000
0001
0000
0010
0000
0001
1000
0010
0000
1000
0000
0001
0000
,
0100
0000
0010
0000
0010
0100
0000
0010
0000
0010
0000
0100
0010
0000
1001
0000
,
1000
0100
1000
0010
1000
0110
0001
0100
,
0001
0010
0001
0100
0001
0110
1000
0100
,
1000
0010
1000
0001
1000
0010
0100
0001
,
1001
0000
1000
0000
0100
0000
1000
0000
0100
0010
0001
1000
0100
0010
0100
0010
,
0001
0100
0010
0100
0001
1001
1000
0100
,
0010
0100
1000
0100
0010
1001
0001
0100
,
0010
0010
1000
1000
0001
0001
0100
0010
,
1000
1000
1000
1000
1000
1000
1000
1000
,
0100
0000
0000
0010
0000
0000
0001
1000
0001
0000
1000
0000
0010
0100
0010
0100
,
0001
0000
1000
0000
0001
0010
0001
0010
0001
0000
1000
0000
0001
0000
0101
0000
,
0100
0000
0010
0000
1000
0010
1000
0010
1000
0000
0001
0000
0010
0000
0011
0000
,
0001
0000
1000
0000
0100
0010
0100
0010
0100
0000
0010
0000
0100
0000
0100
0000
,
1000
0000
0001
0000
0100
0000
0010
0000
1000
0010
1000
0000
0001
0100
0001
0100
,
0010
0000
0100
0000
0010
1000
0010
1000
0010
0000
1000
0000
0001
0000
0011
0000
,
1000
0000
0001
0000
0100
0001
0100
0001
0100
0000
0001
0000
0100
0000
0110
0000
,
0010
0000
1000
0000
0001
1000
0001
1000
0001
0000
0010
0000
0100
0000
1000
0000
,
0002
0010
0013
0000
0100
1000
0100
1000
,
0002
0000
0000
0000
,
1003
0000
0000
0000
,
1000
0000
0001
0100
0010
0000
1000
0010
1000
0010
1000
0010
1000
0000
0002
0000
,
1003
0000
0100
0010
0001
0000
0010
0001
0010
0001
0010
0001
0010
0000
0200
0000
,
1300
0000
0001
0100
0010
0000
0100
0010
0100
0010
0100
0010
0100
0000
0010
0000
,
0100
0000
1000
0000
0100
0000
0001
0000
0010
0001
0100
0000
0010
1000
0001
0000
,
0010
0000
0100
1000
0001
0000
0100
0001
0100
0001
0100
0001
0100
0000
0002
0000
,
1003
0000
0010
1000
0001
0000
0010
0001
0010
0001
0010
0001
0010
0000
0200
0000
,
1300
0000
0001
1000
0100
0000
0010
0100
0010
0100
0010
0100
0010
0000
0001
0000
,
0100
0001
0201
0000
0001
0001
0001
0001
,
0002
0000
0000
0000
,
0303
0000
0000
0000
,
1000
0001
1000
0000
0010
0100
0010
0000
0100
0001
0100
0001
0100
0001
0100
0000
,
0010
0100
0010
0000
1000
0001
1000
0000
0100
1000
0100
1000
0100
1000
0100
0000
,
0010
0000
0001
0000
1000
0010
1000
0010
0000
0100
0001
0000
1000
0000
0010
0000
,
0100
0000
0100
0000
0010
1000
0010
1000
0000
0001
0010
0100
1000
0001
0010
0100
,
1000
0001
1000
0000
0100
0010
0100
0000
0010
0001
0010
0001
0010
0001
0010
0000
,
0100
0010
0100
0000
1000
0001
1000
0000
0010
1000
0010
1000
0010
1000
0010
0000
,
0100
0000
0001
0000
1000
0100
1000
0100
0000
0010
0001
0000
1000
0000
0100
0000
,
0110
0000
0000
0000
0000
0000
0000
0000
0010
0001
1000
0100
0010
0100
0010
0001
,
2000
3000
0000
0000
;
