#VERSION:0.83;
#TITLE:BURNIN' THE FLOOR;
#SUBTITLE:;
#ARTIST:NAOKI;
#TITLETRANSLIT:;
#SUBTITLETRANSLIT:;
#ARTISTTRANSLIT:;
#GENRE:Dance Dance Revolution 4th Mix,Dancing Stage Euromix 2;
#CREDIT:;
#MUSIC:BURNIN' THE FLOOR.mp3;
#BANNER:BURNIN' THE FLOOR.png;
#BACKGROUND:BURNIN' THE FLOOR-bg.png;
#CDTITLE:;
#SAMPLESTART:26.353;
#SAMPLELENGTH:12.382;
#SELECTABLE:YES;
#OFFSET:-0.041;
#BPMS:0.000=155.063;
#STOPS:;
#SPEEDS:0.000=1.000=0.000=0;
#SCROLLS:0.000=1.000,
32.000=5.000,
33.000=4.000,
34.000=3.000,
34.500=2.000,
35.000=1.500,
35.500=1.000
;
#TICKCOUNTS:0.000=2;
#TIMESIGNATURES:0.000=4=4;
#COMBOS:0.000=1;
#DISPLAYBPM:155.000;
#BGCHANGES:;
#FGCHANGES:;

//--------------- dance-single - HellKiteChaos ----------------
#NOTEDATA:;
#STEPSTYPE:dance-single;
#DESCRIPTION:HellKiteChaos;
#DIFFICULTY:Challenge;
#METER:12;
#RADARVALUES:0,0,0,0,0;
#NOTES:
0000
0000
0000
0000
,
0000
0000
0000
0000
,
0000
0000
0000
0000
,
0000
0000
0000
0000
,
0010
1000
0010
1000
0001
0010
0100
0010
,
0100
1000
0100
1000
0001
0100
0010
1000
,
0001
0001
0100
0100
0010
0010
1000
0100
,
0010
0001
0000
1000
0010
0010
0100
0000
,
2002
0000
0000
3003
,
1000
0000
0100
0000
1000
0010
1010
0000
,
0001
0100
1000
0100
0001
0001
1001
0000
,
1000
0010
1000
0001
0010
0100
1000
0000
,
0001
0010
0010
0100
0100
0100
1000
0000
,
0001
0100
0001
0010
0100
0010
0001
0000
,
1000
0010
0100
0010
0100
0001
1000
0000
,
0100
0010
1001
0000
0010
0100
1001
0000
,
1000
0000
0000
0000
0010
0000
0000
0000
0100
0000
0000
0010
0100
0000
0001
0000
,
1000
0010
0100
0010
0100
0010
0001
0010
,
0100
0010
1000
0001
0100
0010
1000
0000
,
0001
0100
0010
0100
1000
0100
0010
0100
,
1000
0100
0010
0100
0001
1000
0001
0010
,
0200
0000
1300
0000
1000
0100
0010
0001
,
0200
0000
0301
0000
1000
0010
0100
0000
,
0001
0100
0101
0000
1000
0010
1010
0000
,
0001
1000
0001
0000
0100
0001
0100
0000
0010
0000
0010
0000
1000
0001
1000
0000
,
0001
0000
0100
0000
0001
0000
1000
0100
1000
0000
0001
0000
0100
0000
0000
0000
,
1000
0000
0100
0000
1000
0000
0001
0100
0001
0000
1000
0000
0100
0000
0000
0000
,
0010
0000
0001
0000
0010
0000
0100
0010
0100
0000
0010
0000
0001
0000
0000
0000
,
0100
0000
0001
0000
0100
0000
0010
0100
0010
0000
0100
0000
0001
0000
1000
0000
,
0100
0010
0010
0001
0000
1000
0000
0100
,
0000
1000
0000
0010
0000
0100
0001
0100
,
0010
0000
2000
0002
0000
3000
0000
0013
,
0000
0010
0000
0100
0000
0010
0001
1000
,
0100
0000
0000
1000
0000
0000
0100
0000
0000
0000
0010
0000
0001
0000
0100
0000
,
0010
0000
0000
1000
0000
0000
0010
0000
0000
0000
0100
0000
0001
0000
0100
0000
,
0010
0000
0000
0010
0000
0000
1000
0000
0100
0000
0001
0000
0100
0000
1000
0000
,
0010
0000
0000
0010
0000
0000
0100
0000
0001
0000
0010
0000
0001
0000
0000
0000
,
0001
0000
0000
1000
0000
0000
0100
0000
0010
0000
0100
0000
1000
0000
0001
0000
,
0100
0000
0000
0010
0000
0000
0100
0000
0001
0000
1000
0000
0100
0000
0010
0000
,
0001
0000
0000
1000
0000
0000
0100
0000
1000
0000
0010
0000
0100
0000
0001
0000
,
1000
0000
0001
1000
0002
0000
0000
0000
0103
0000
0100
0000
2002
0000
3000
0000
,
1003
0000
0010
0000
1000
0000
0001
0010
0001
0000
1000
0000
0010
0000
1000
0000
,
0001
0000
0010
0000
0001
0000
1000
0010
1000
0000
0001
0000
0010
0000
0000
0000
,
0100
0000
1000
0000
0100
0000
0010
0100
0010
0000
0100
0000
1000
0000
1000
0000
,
0010
0000
1000
0000
0010
0000
0100
0010
0100
0000
0010
0000
1000
0000
0001
0000
,
0010
0100
0100
1000
0000
0001
0000
0010
,
0000
0001
0000
0100
0000
0010
1000
0010
,
0100
0000
0002
1000
0003
1000
0100
0000
,
0010
0001
0011
0001
1000
0100
0010
0001
,
0001
0000
0100
0000
0001
0000
1000
0100
1000
0000
0001
0000
0100
0000
0000
0000
,
1000
0000
0100
0000
1000
0000
0001
0100
0001
0000
1000
0000
0100
0000
0000
0000
,
0010
0000
0001
0000
0010
0000
0100
0010
0100
0000
0010
0000
0001
0000
0001
0000
,
0100
0000
0001
0000
0100
0000
0010
0100
0010
0000
0100
0000
0001
0000
1000
0000
,
0100
0010
0010
0001
0000
1000
0000
0100
,
0000
1000
0000
0010
0000
0100
0001
0100
,
0010
0100
0010
0000
0100
0000
0001
0000
0000
0000
0001
0000
0010
0100
0010
0000
,
0100
0000
1000
0000
0000
0000
1000
0000
0010
0100
0010
0000
0100
0000
0001
0000
,
1000
1100
0000
0011
0001
1000
0010
0110
,
0000
0100
0101
2200
0000
0000
0000
0000
,
0000
3300
0000
0000
;
