#TITLE:ABSOLUTE;
#SUBTITLE:;
#ARTIST:dj TAKA;
#TITLETRANSLIT:;
#SUBTITLETRANSLIT:;
#ARTISTTRANSLIT:;
#GENRE:;
#CREDIT:;
#BANNER:ABSOLUTE.png;
#BACKGROUND:ABSOLUTE-bg.png;
#LYRICSPATH:;
#CDTITLE:;
#MUSIC:ABSOLUTE.ogg;
#OFFSET:0.000000;
#SAMPLESTART:20.002001;
#SAMPLELENGTH:15.000000;
#SELECTABLE:YES;
#DISPLAYBPM:144.000000;
#BPMS:0.000000=144.000000
,238.000000=130.434998
,239.000000=123.288002
,240.000000=103.447998
,241.000000=98.901001
,242.000000=82.569000
,243.000000=58.064999
,244.000000=38.014999
;
#STOPS:
;
#BGCHANGES:;
#KEYSOUNDS:;
#ATTACKS:;

//---------------dance-single - ----------------
#NOTES:
     dance-single:
     :
     Challenge:
     14:
     0.644156,0.779545,0.172727,0.190909,0.477273,496.000000,477.000000,19.000000,21.000000,0.000000,0.000000,0.644156,0.779545,0.172727,0.190909,0.477273,496.000000,477.000000,19.000000,21.000000,0.000000,0.000000:
// measure 0
0000
0000
0000
0000
,  // measure 1
0000
0000
0000
0000
,  // measure 2
0000
0000
0000
0000
,  // measure 3
0000
0000
0000
0000
,  // measure 4
0000
0000
0000
0000
,  // measure 5
1010
0010
0000
0100
0000
0001
0000
1000
,  // measure 6
1100
0100
0000
0010
0000
0001
0000
1000
,  // measure 7
1010
0010
0000
0100
0101
0001
0000
1000
,  // measure 8
1100
0100
0010
0001
0010
0100
2000
0000
,  // measure 9
3001
1000
0010
0100
0001
1000
0200
0000
,  // measure 10
0310
0001
0010
0100
1000
0001
2000
0000
,  // measure 11
3001
0100
0001
0100
0010
1000
0010
1000
0001
0000
1000
0100
0010
0000
0001
0000
,  // measure 12
1000
0000
0100
1000
0010
0000
0100
0000
0001
0000
0100
0001
0010
0000
0100
0000
,  // measure 13
2000
0001
3010
1001
,  // measure 14
0001
0000
0010
0001
0100
0000
0010
0000
1000
0000
0010
1000
0100
0000
0010
0000
,  // measure 15
0002
1000
0103
1001
,  // measure 16
0001
0000
0001
0100
0000
0000
0001
0000
1000
0000
1000
0100
0000
0000
1000
0000
,  // measure 17
0001
0100
0001
0000
1000
0010
0000
0100
0000
0001
0000
1000
0000
0100
0000
0000
,  // measure 18
1000
0000
1000
0001
0000
0000
1000
0000
0001
0000
0001
0100
0000
0000
0001
0000
,  // measure 19
1000
0010
0000
0100
0000
0001
1000
0001
1000
0001
0000
0100
0010
0000
1000
0000
,  // measure 20
0001
0000
0000
0000
0000
0000
0000
0000
0000
0000
0000
1000
0100
0000
1000
0000
,  // measure 21
0001
0100
0001
0100
0000
0000
0010
0000
0100
0001
0100
0001
0000
0000
0100
0000
,  // measure 22
0001
1000
0001
0000
1000
0100
0000
1000
0000
0001
0100
0000
0010
1000
0001
0000
,  // measure 23
1000
0100
1000
0100
0000
0000
0010
0000
0100
1000
0100
1000
0000
0000
0010
0000
,  // measure 24
1000
0000
0001
0000
0100
0000
0000
0001
0000
1000
0100
0010
0001
0000
1000
0000
,  // measure 25
0001
0100
0001
0010
0000
0000
0001
0000
1000
0100
1000
0010
0000
0000
1000
0000
,  // measure 26
0001
0100
0001
0000
0100
0010
0000
0100
0000
0001
0000
0010
0000
0100
0000
0000
,  // measure 27
1000
0100
1000
0001
0000
0000
1000
0000
0001
0100
0001
1000
0000
0000
0001
0000
,  // measure 28
1000
0010
0100
0001
0010
0100
1000
0001
,  // measure 29
0100
0010
0100
0001
0010
0100
1000
0001
0100
0000
0001
1000
0001
0000
1000
0000
,  // measure 30
0020
0100
0001
0100
,  // measure 31
2030
0100
0001
3010
,  // measure 32
1000
0000
0010
0000
0100
0000
0001
0100
0010
0000
1000
0000
0100
0000
1000
0100
,  // measure 33
0010
0001
1000
0010
2000
0000
3001
0000
,  // measure 34
1010
0010
1000
0001
1000
0100
1000
0001
,  // measure 35
0001
0100
0001
0010
0001
1000
0001
0100
,  // measure 36
0010
1000
0100
0010
0001
0100
1000
0001
,  // measure 37
0010
1000
0100
0010
0001
1000
1001
0000
,  // measure 38
0101
0000
0100
0000
0010
0000
1000
0000
0100
0010
0001
0000
0010
0000
0100
0000
,  // measure 39
1000
0000
0001
0000
0100
0000
0010
0000
1000
0010
0100
0000
0001
0000
1000
0000
,  // measure 40
0100
0000
0010
0000
0001
0000
1000
0000
0001
0100
0001
0000
1000
0000
0001
0000
,  // measure 41
0100
0000
0010
0000
1000
0000
0001
0000
1000
0100
1000
0000
0001
0000
1000
0000
,  // measure 42
0010
0000
0100
0000
0001
0000
1000
0000
0100
0010
0001
0000
1000
0000
0001
0000
,  // measure 43
0100
0000
0010
0000
1000
0000
0001
0000
1000
0100
0010
0000
0001
0000
1000
0000
,  // measure 44
1010
0000
0010
0100
1001
0000
0001
0100
,  // measure 45
0101
0000
0000
0000
1100
0000
0000
0000
0001
1000
0001
1000
0001
0000
1000
0000
,  // measure 46
0010
0100
0001
1000
0001
0100
0020
1030
,  // measure 47
0020
0130
0020
0031
0020
0130
0020
1030
,  // measure 48
0020
0130
0001
0010
0001
1000
0200
0301
,  // measure 49
0200
0000
0310
0000
0200
0000
1300
0000
0200
0000
0310
0000
0200
0000
1300
0001
,  // measure 50
0100
0000
0000
0000
0101
0000
0000
0000
0001
0100
0001
0000
1000
0000
0000
0000
,  // measure 51
0010
0000
1000
0000
0001
0000
0000
0000
1000
0100
1000
0000
0001
0000
0000
0000
,  // measure 52
1100
0001
1000
0000
0101
1000
0001
0000
,  // measure 53
1001
0000
0001
0000
0100
0000
0010
0000
1000
0000
0100
0010
0001
0010
0001
0010
,  // measure 54
0100
0000
1000
0001
1000
0000
0010
0000
0100
0000
0001
0100
0001
0000
1000
0000
,  // measure 55
0010
0100
0010
1000
0100
0010
0001
0010
0100
1000
0001
0100
0010
0000
0000
0000
,  // measure 56
1000
0000
0010
0100
0010
0000
1000
0000
0100
0000
0010
0001
0010
0000
0100
0000
,  // measure 57
1000
0001
1000
0010
0100
0001
0010
0100
1000
0001
0100
0010
1000
0000
0000
0000
,  // measure 58
0001
0000
1000
0100
1000
0000
0010
0000
0100
0000
0001
0100
0001
0000
1000
0000
,  // measure 59
0001
0100
0010
1000
0100
0010
0001
1000
0010
0100
0010
1000
0001
0100
0010
1000
,  // measure 60
0100
0000
0010
0001
1000
0000
0001
0000
1000
0000
0010
1000
0001
0000
0100
0000
,  // measure 61
2002
3003
0000
0000
;
