#TITLE:A;
#SUBTITLE:;
#ARTIST:D.J.Amuro;
#TITLETRANSLIT:;
#SUBTITLETRANSLIT:;
#ARTISTTRANSLIT:;
#GENRE:;
#CREDIT:;
#MUSIC:A.mp3;
#BANNER:A.png;
#BACKGROUND:A-bg.png;
#CDTITLE:;
#SAMPLESTART:0.000;
#SAMPLELENGTH:0.000;
#SELECTABLE:YES;
#OFFSET:-0.320;
#BPMS:0.000=93.000
,80.000=191.000
;
#STOPS:80.000=1.292;
#DISPLAYBPM:93.000:191.000;
#BGCHANGES:;
#FGCHANGES:;

//--------------- dance-single - HellKiteChaos ----------------
#NOTES:
     dance-single:
     HellKiteChaos:
     Challenge:
     18:
     0,0,0,0,0:
0000
0000
0000
0000
,
0000
0000
0000
0000
,
0000
0000
1000
0000
0010
0000
0202
0303
0000
0000
0022
0033
0000
0000
2200
3300
,
0000
1001
0001
0100
0000
0010
1000
0100
,
0000
0000
0010
0000
0001
0000
0202
0303
0000
0000
0220
0330
0000
0000
2020
3030
,
0000
1000
0001
0010
0000
0100
1000
0001
,
0000
0000
0100
0000
0010
0000
2020
3030
0000
0000
0220
0330
0000
0000
0202
0303
,
0000
0000
2200
3300
0220
0330
2200
3300
0000
0000
0022
0033
0220
0330
2200
3300
,
2002
3003
0100
1000
0010
1000
0001
0000
1000
0000
0001
0001
0001
0000
1000
1000
,
1000
0000
0010
1000
0001
0000
0100
0001
1000
0000
2020
3030
0220
0330
0202
0303
,
2002
3003
0010
0001
0100
0001
1000
0000
0001
0000
1000
1000
1000
0000
0001
0001
,
0001
0000
0100
0001
1000
0000
0010
1000
0001
0000
0202
0303
0220
0330
2020
3030
,
2200
3300
0100
0010
0001
1000
0001
0000
1000
0000
0010
0010
0010
0000
0100
0100
,
0100
0000
0010
1000
0100
0000
0010
0001
0100
0000
0202
0303
0220
0330
2020
3030
,
2002
3003
1000
0010
0100
0001
1000
0000
0100
0000
0010
0010
0010
0000
0100
0100
,
0100
0000
0010
0001
0100
0000
0010
1000
0100
0000
0022
0033
2200
3300
0022
0033
,
0000
1000
0000
1000
0000
0001
0000
0001
,
0000
1000
1000
1100
0000
1100
0101
0000
,
0000
0100
0000
0100
0000
0010
0000
0110
,
0000
0110
0101
1100
0000
0110
0000
1001
,
0000
0000
0000
0000
0000
0000
0000
0000
1000
0000
0001
0000
0100
0000
0001
0100
,
0001
0100
0010
0000
1000
0100
1000
0100
0010
0000
0001
0000
1000
0000
0010
1000
,
0010
1000
0001
0000
0010
0001
0010
0001
1000
0100
0010
0000
0100
0010
0001
0000
,
0100
0010
1000
0000
0001
0100
0010
0000
1000
0001
1000
0001
0100
0000
0001
1000
,
0001
1000
0010
0000
0100
0001
1000
0000
0100
1000
0100
1000
0100
0000
0010
0000
,
0001
0010
0000
0100
1000
0000
0001
0000
0100
0001
0100
0001
0100
0000
0010
0000
,
1000
0010
0000
0100
0001
0000
1000
0000
0001
0100
0001
0100
0000
0010
1000
0000
,
0001
0010
0001
0010
0000
0100
0010
0000
0100
1000
0010
0000
0100
0001
0010
0000
,
0100
1000
0001
0000
0100
0001
1000
0000
0001
0000
1000
0000
0010
0000
1000
0010
,
1000
0010
0100
0000
0001
0010
0001
0010
0100
0000
1000
0000
0001
0000
0100
0001
,
0100
0001
1000
0000
0100
1000
0100
1000
0001
0010
0100
0000
0010
0100
1000
0000
,
0010
0100
0001
0000
1000
0010
0100
0000
0001
1000
0001
1000
0010
0000
1000
0001
,
1000
0001
0100
0000
0010
1000
0001
0000
0010
0001
0010
0001
0010
0000
0100
0000
,
1000
0100
0000
0010
0001
0000
1000
0000
0010
1000
0010
1000
0010
0000
0100
0000
,
0001
0100
0000
0010
1000
0000
0001
0000
1000
0010
1000
0010
0000
0100
0001
0000
,
1000
0100
1000
0100
0000
0010
0100
0000
2002
0000
0000
0000
3003
0000
0000
0000
,
1000
0100
0010
0001
1000
0100
0010
0001
1000
0000
0001
0000
0100
0000
0001
0000
,
1000
0100
1000
0100
1000
0010
1000
0000
0001
0100
0001
0100
0001
0010
0001
0000
,
1000
0100
0010
0001
1000
0001
1000
0001
1000
0100
1000
0000
0100
0010
0100
0000
,
0010
0001
0010
0000
0001
1000
0001
0000
0100
0010
1000
0001
0100
0010
1000
0001
,
0100
0010
0100
0010
0100
0001
1000
0001
1000
0100
0010
0000
0100
0010
0001
0000
,
0010
0001
1000
0000
0001
1000
0010
0000
1000
0010
0100
0000
0010
0100
0001
0000
,
0100
0001
1000
0000
0001
1000
0100
0000
0010
0001
0010
0001
1000
0010
1000
0000
,
0001
0100
0001
0100
0001
1000
0100
0000
0010
0001
0010
0000
0100
0010
0100
0000
,
1000
0100
1000
0000
0001
1000
0001
0000
1000
0100
0010
0001
1000
0001
0010
0100
,
1000
0100
0010
0001
1000
0001
0010
0100
1000
0100
0010
0001
1000
0001
0010
0100
,
1000
0100
0010
0001
1000
0001
0010
0100
1000
0100
0010
0001
1000
0001
0010
0100
,
1000
0010
0100
0001
0010
0100
1000
0001
1000
0000
0000
0000
0000
0000
0000
0000
,
0001
0100
0010
1000
0001
0100
0010
1000
0001
0100
0001
0100
0001
0000
1000
0000
,
0100
1000
0100
1000
0100
0000
0010
0000
0001
0010
0001
0010
0001
0000
0100
0000
,
0010
1000
0010
1000
0010
0000
1000
0000
0001
0010
0100
1000
0001
0010
0100
1000
,
0001
0010
0100
1000
0001
0010
0100
1000
0010
0100
0001
1000
0010
0100
0001
1000
,
0010
0100
0001
1000
0010
0100
0001
0000
1000
0100
0010
0001
1000
0100
0010
0000
,
0001
0100
0010
1000
0001
0100
0010
0000
1000
0010
0100
0001
0010
0100
1000
0010
,
0100
0001
0010
0100
1000
0010
0100
0001
2002
0000
0000
0000
0000
0000
0000
0000
,
0000
0000
0000
0000
,
0000
0000
0000
0000
,
0000
0000
3003
0000
;
