#TITLE:Young Forever;
#SUBTITLE:;
#ARTIST:Rebecca;
#TITLETRANSLIT:;
#SUBTITLETRANSLIT:;
#ARTISTTRANSLIT:;
#GENRE:;
#CREDIT:;
#MUSIC:Young Forever.ogg;
#BANNER:Young Forever.png;
#BACKGROUND:Young Forever-bg.png;
#CDTITLE:;
#SAMPLESTART:62.160;
#SAMPLELENGTH:11.980;
#SELECTABLE:YES;
#OFFSET:-0.549;
#BPMS:0.000=140.000;
#STOPS:;
#DISPLAYBPM:140.000;
#BGCHANGES:;
#FGCHANGES:;

//--------------- dance-single - HellKiteChaos ----------------
#NOTES:
     dance-single:
     HellKiteChaos:
     Challenge:
     12:
     0.556,0.569,0.055,0.219,0.219:
0000
0000
0000
0000
,
0000
0000
0000
0000
,
0000
0000
0000
0000
,
0000
0000
0000
0000
,
1000
0000
0001
0010
0100
0000
1000
0000
0010
0000
1000
0000
0100
0000
0010
0000
,
0001
0200
0010
0000
0010
0300
0100
0001
,
0010
0000
0100
1000
0001
0000
0100
0000
0010
0000
0100
0000
0001
0000
0010
0000
,
0100
0200
1000
0000
1000
0000
1300
0100
,
0010
0000
0001
1000
0010
0000
0100
0000
0001
0000
1000
0000
0010
0000
1000
0000
,
0001
0002
1000
0000
1000
0000
1003
0001
,
0100
0000
0010
1000
0010
0000
0100
0000
0001
0000
0010
0000
1000
0000
0010
0000
,
0100
2000
0100
0000
0100
0000
3100
0010
,
1001
0000
0001
0010
0000
0100
0000
0010
,
0001
0000
0100
0010
0000
0100
0000
0001
,
0010
0000
0100
1000
0000
0100
0000
0010
,
0100
0000
1000
0010
0000
0100
0001
1000
,
0010
0000
0100
0010
0000
1000
0000
1010
,
0000
0101
0010
1000
0000
0001
0100
0001
,
0000
0010
0100
0000
1000
0000
0010
0000
,
0100
0000
0001
0100
0001
0000
0010
0000
0100
0000
1000
0100
1000
0000
0001
0000
,
0100
0000
0010
2000
0100
0000
3100
2000
,
0010
0000
3010
0100
0001
0010
0100
1000
,
0001
0000
0100
0020
1000
0000
1030
0020
,
0100
0000
0130
0001
1000
0100
1000
0001
,
0100
0000
0001
1000
0001
0100
0010
1000
,
0000
0100
1000
0010
0000
0010
0100
0001
,
0010
0000
0100
0100
0100
0000
1000
0000
,
0001
0000
0100
0010
0100
0000
0001
0000
1000
0000
0010
0100
0010
0000
1000
0000
,
0200
0000
0010
0010
0310
0000
0001
2000
,
0010
0000
0100
0100
3100
0000
0010
0002
,
0100
0000
1000
0000
0013
0100
1000
0020
,
0100
0000
0100
0000
1000
0000
1030
0100
,
0100
0000
0010
0002
0000
0203
0000
0320
,
0000
2030
0000
3010
0100
0000
0001
0010
,
0100
0000
0100
1000
0000
0010
0100
0001
,
2002
0000
0000
0000
0000
0000
0000
0000
3003
0000
0001
1000
0001
1000
0001
1000
,
0001
0000
0000
0001
0100
0000
0000
0100
0010
0000
0000
0010
1000
0000
0000
1000
,
0001
0000
0000
0001
0010
0000
0000
0010
0100
0000
0000
0100
1000
0000
0000
1000
,
0001
0000
0000
0001
0100
0000
0000
0100
0010
0000
0000
0010
1000
0000
0000
0000
,
0002
0100
1000
0003
2000
0100
0001
3000
,
0001
0000
0000
0010
0100
0000
0000
0100
1000
0000
0000
1000
0010
0000
0000
0010
,
0100
0000
0000
0100
0001
0000
0000
0001
1000
0000
0000
1000
0100
0000
0000
0100
,
0010
0000
0000
0010
0001
0000
0000
0001
1000
0000
0000
1000
0010
0000
0000
0010
,
1000
0100
0010
0001
0100
0010
1000
0100
,
0010
0000
0010
0001
0010
0000
0100
0000
1000
0000
0010
0000
1000
0000
0100
0000
,
0010
0002
0100
0000
0100
0000
1003
0010
,
0100
0000
0100
0001
0100
0000
0001
0000
0010
0000
0100
0000
0010
0000
0001
0000
,
1000
0010
1000
0010
0200
0000
0000
0000
0310
0000
0100
0000
0010
0000
0100
0000
,
0001
0000
0001
0010
0001
0000
0100
0000
0010
0000
1000
0000
0100
0000
0010
0000
,
0001
0200
0010
0000
0010
0000
0301
0010
,
0100
0000
0100
1000
0100
0000
0010
0000
0001
0000
1000
0000
0010
0000
0100
0000
,
0001
0200
1000
0000
1000
0300
0100
0001
;
