#VERSION:0.83;
#TITLE:WAKA LAKA;
#SUBTITLE:;
#ARTIST:JENNY ROM vs ZIPPERS;
#TITLETRANSLIT:;
#SUBTITLETRANSLIT:;
#ARTISTTRANSLIT:;
#GENRE:;
#CREDIT:;
#MUSIC:WAKA LAKA.mp3;
#BANNER:WAKA LAKA.png;
#BACKGROUND:WAKA LAKA-bg.png;
#CDTITLE:;
#SAMPLESTART:66.350;
#SAMPLELENGTH:12.000;
#SELECTABLE:YES;
#OFFSET:-0.049;
#BPMS:0.000=170.000;
#STOPS:;
#SPEEDS:0.000=1.000=0.000=0;
#SCROLLS:0.000=1.000;
#TICKCOUNTS:0.000=4;
#TIMESIGNATURES:0.000=4=4;
#LABELS:0.000=Song Start;
#COMBOS:0.000=1;
#DISPLAYBPM:170.000;
#ORIGIN:;
#PREVIEWVID:;
#JACKET:;
#CDIMAGE:;
#DISCIMAGE:;
#BGCHANGES:;
#FGCHANGES:;

//--------------- dance-single - HellKiteChaos ----------------
#NOTEDATA:;
#STEPSTYPE:dance-single;
#DESCRIPTION:HellKiteChaos;
#DIFFICULTY:Challenge;
#METER:12;
#RADARVALUES:0.215883,0.473739,0.173949,0,0,139,123,16,0,0,0,0,0,0,0.215883,0.473739,0.173949,0,0,139,123,16,0,0,0,0,0,0;
#DISPLAYBPM:170.000;
#CHARTNAME:;
#CHARTSTYLE:;
#CREDIT:;
#NOTES:
0000
0000
0000
0000
,
0000
0000
0000
0000
,
1000
0000
0000
0000
0010
0000
0000
0000
0100
0000
0000
0100
0000
0000
1000
0000
,
0100
0000
0000
0000
0100
0000
0000
0000
0010
0000
0000
0010
0000
0000
0001
0000
,
1000
0000
0000
0000
0001
0000
0000
0000
1000
0000
0000
1000
0000
0010
1000
0000
,
0001
0000
0001
0000
0010
0100
1000
0001
,
0010
0000
0000
0000
0100
0000
0000
0000
0010
0000
0000
0010
0000
0000
0001
0000
,
0100
0000
0000
0000
0100
0000
0000
0000
0010
0000
0000
0010
0000
1000
0010
0000
,
1000
0000
0001
0000
1000
0000
0000
0010
0000
1000
0000
0001
1000
0000
1000
0000
,
0001
0100
0010
0100
0001
0100
0100
0100
,
0020
0000
0130
0000
1001
0000
0010
1000
,
0100
0010
0100
1000
0020
0000
0130
0000
,
0001
0010
0100
0010
0002
0000
0103
0000
,
0010
1000
0001
0100
0002
0000
2003
0000
,
3010
0000
0100
0000
0110
0000
0010
1000
,
0100
0001
0100
1000
0020
0000
0130
0000
,
0001
0010
1000
0010
0002
0000
0103
0000
,
1010
0000
1100
0000
1001
1000
0100
0010
,
0001
0010
0001
0000
0100
0010
1000
0010
,
1000
0001
0100
0000
0010
1000
0001
1000
,
0100
1000
0100
0000
0010
0001
0100
0000
,
0010
1000
0100
1000
0010
0010
0010
0010
,
0110
0000
0101
0000
0010
1000
0001
0100
,
0020
0000
1030
2000
0000
0001
3001
0000
,
2100
0000
0001
3002
0000
1000
1003
0000
,
0012
0000
1000
1003
0000
0001
0100
0010
,
1000
0001
0010
0001
0100
0010
1000
0100
,
2000
0000
0001
3002
0000
1003
1000
0020
,
0000
0130
0001
0001
2000
0000
3001
0000
,
0220
0000
0000
0330
0000
1000
0010
0100
,
0001
0001
0010
0100
1000
1000
0010
0100
,
0002
0000
0103
0200
0000
0010
0310
0000
,
2010
0000
0001
3002
0000
0010
0013
0000
,
2100
0000
0001
3002
0000
0103
0010
0100
,
0010
1000
0001
0010
0001
0100
0001
1000
,
0200
0000
1300
2000
0000
0000
3000
0002
,
0000
0103
0010
0010
2000
0000
3001
0000
,
2002
0000
0000
0000
0000
0000
3003
0000
0000
0000
2000
3000
0200
0300
0020
0030
,
0002
0003
1000
0000
0010
0000
0100
0000
0001
0000
2000
3000
0200
0300
0020
0030
,
0002
0003
1000
0000
0010
0000
0100
0000
0001
0000
2000
3000
0200
0300
0020
0030
,
0002
0003
1000
0000
0010
0000
0100
0000
0001
0000
2000
3000
0200
0300
0020
0030
,
0002
0000
0000
0000
1003
0000
1000
0000
0000
0000
0002
0003
0020
0030
0200
0300
,
2000
3000
0001
0000
0100
0000
0010
0000
1000
0000
0002
0003
0020
0030
0200
0300
,
2000
3000
0001
0000
0100
0000
0010
0000
1000
0000
0000
0000
0000
0000
0001
0000
,
0010
0010
0100
0100
,
2002
0000
0000
0000
,
0000
0000
3003
0000
,
0010
0000
0100
0000
1001
0000
0010
1000
,
0100
0010
0100
1000
0020
0000
0130
0000
,
0001
0010
0100
0010
0002
0000
0103
0000
,
0010
1000
0001
0100
0002
0000
2003
0000
,
3010
0000
0100
0000
0110
0000
0010
1000
,
0100
0001
0100
1000
0020
0000
0130
0000
,
0001
0010
1000
0010
0002
0000
0103
0000
,
1010
0000
1100
0000
1001
0001
0001
0001
,
0200
0000
0301
0000
1002
0000
0103
0001
,
0010
0100
0010
0001
0200
0000
0310
0000
,
1000
0100
0010
0100
2000
0000
3010
0000
,
0100
0001
1000
0010
2000
0000
3002
0000
,
0203
0000
0310
0000
0110
0000
0010
1000
,
0001
0100
0010
1000
0200
0000
0310
0000
,
0001
0100
0010
1000
0200
0000
0310
0000
,
0001
0100
0010
1000
0200
0000
0310
0000
,
0001
0100
0010
1000
0200
0000
0310
0000
,
0001
0000
1100
0101
0000
0000
0000
0000
;
