#TITLE:TwinBee ~Generation X~;
#SUBTITLE:;
#ARTIST:FinalOffset;
#TITLETRANSLIT:;
#SUBTITLETRANSLIT:;
#ARTISTTRANSLIT:;
#GENRE:;
#CREDIT:;
#MUSIC:TwinBee ~Generation X~.mp3;
#BANNER:TwinBee ~Generation X~.png;
#BACKGROUND:TwinBee ~Generation X~-bg.png;
#CDTITLE:;
#SAMPLESTART:0.000;
#SAMPLELENGTH:0.000;
#SELECTABLE:YES;
#OFFSET:-0.095;
#BPMS:0.000=169.000;
#STOPS:;
#DISPLAYBPM:169.000;
#BGCHANGES:;
#FGCHANGES:;

//--------------- dance-single - HellKiteChaos ----------------
#NOTES:
     dance-single:
     HellKiteChaos:
     Challenge:
     14:
     0,0,0,0,0:
0000
0000
0000
0000
,
0000
0000
0000
0000
,
0000
0000
0000
0000
,
0000
0000
0000
0000
,
0000
0000
0001
0001
,
1001
0000
1001
0000
1000
1000
0000
0010
,
0010
0000
0000
0000
0100
0000
0100
0000
0001
0000
1000
0000
0010
0000
0100
0010
,
0100
0000
0110
0000
0001
0001
0000
1000
,
1000
0000
0000
0000
0100
0000
0100
0000
0010
0000
0001
1000
0001
0000
0100
0000
,
0010
1000
0010
0000
0100
0001
0100
0000
0001
0000
0001
0000
0000
0000
1000
0000
,
1000
0000
0000
0000
0100
0000
0100
0010
0001
0000
0001
0000
1000
0000
0000
0000
,
0010
0000
0100
0000
0001
1000
0001
0000
1000
0000
1000
0000
0000
0000
0010
0000
,
0010
0000
0100
0000
0001
0000
1000
0001
0010
0000
0100
0000
0100
0000
0000
0000
,
1000
0100
1000
0100
1000
0000
0001
0000
0200
0000
0000
0000
0010
0000
0000
0000
,
0010
0000
0310
0000
0010
1000
0010
0100
,
0010
1000
0010
0100
0001
1000
0010
0100
,
0001
0010
0100
1000
0002
0000
0000
1000
,
2000
3003
0110
1001
,
1000
0001
1000
0001
1000
0000
0000
0000
0001
1000
0100
0000
1000
0000
0001
1000
,
0010
0000
0100
0000
0010
1000
0001
0000
1000
0000
0001
0010
0100
0000
1000
0000
,
0100
0000
1000
0000
0001
0000
1000
0000
0010
1000
0001
0000
1000
0000
0100
1000
,
0001
0000
0010
0000
0100
1000
0001
0000
1000
0000
0010
1000
0001
0000
0100
0000
,
0010
1000
0010
0100
0001
0100
0010
0100
,
0001
0100
0010
0100
0001
1000
0100
0010
,
0001
0100
0010
1000
0002
0000
0000
0010
,
0000
0000
0100
0000
0000
1003
0000
0000
,
0010
1000
0010
0000
0100
0001
0100
0000
0000
0000
0001
0000
0100
0000
1000
0000
,
0100
0001
0000
1001
0000
1000
0100
0001
,
0100
1000
0000
1001
0000
1000
0010
0001
,
0010
1000
0000
0001
1000
1000
0100
0100
,
0010
0000
0010
0000
0001
0000
0001
0000
1000
0000
0100
0010
0001
0000
1000
0000
,
0001
0000
1000
0100
0010
0000
0001
0000
1000
0000
0100
0010
0001
0000
1000
0000
,
0001
0000
1000
0100
0010
0000
0001
0000
1100
0000
0000
0000
0010
0000
0010
0000
,
0011
0000
0001
0001
1001
0000
0201
0000
,
0010
0000
0010
0000
0010
0000
0310
0000
1000
0000
0001
0100
0010
0000
1000
0000
,
0001
0000
0100
0010
1000
0000
0001
0000
0100
0000
0010
1000
0001
0000
0100
0000
,
0010
0000
1000
0001
0100
0000
0010
0000
1000
0000
0100
0010
0001
0000
1000
0000
,
0001
0000
0100
0010
1000
0000
0001
0000
1000
0000
0001
0010
0100
0000
1000
0000
,
0001
0000
1000
0010
0100
0000
0001
0000
1000
0000
0100
0000
0100
0000
0000
0000
,
0010
0001
0001
1000
0010
0100
0010
0100
,
0001
0010
0100
1000
1010
0000
0101
0000
,
1100
0000
0011
0000
1000
0001
0000
0110
,
1001
0000
0000
0000
1001
0000
0000
0000
1000
0000
0010
0100
0001
0000
1000
0000
,
0001
0000
0010
0100
1000
0000
0001
0000
1000
0000
0100
0010
0001
0000
1000
0000
,
0001
0000
0100
0010
1000
0000
0001
0000
2000
0000
0000
0000
3001
0000
0000
0000
,
0200
0310
0110
1001
,
1000
0001
1000
0001
1001
0000
0000
0000
,
0000
0000
0000
0000
0000
0000
1000
0000
0001
0100
0001
0100
,
0010
0000
0000
0000
1000
0000
0002
0000
0000
0000
0000
0000
0000
0000
0000
0000
0000
0000
0000
0000
0000
0003
0000
0000
;
