#TITLE:TRIP MACHINE survivor;
#SUBTITLE:;
#ARTIST:DE-SIRE;
#TITLETRANSLIT:;
#SUBTITLETRANSLIT:;
#ARTISTTRANSLIT:;
#GENRE:;
#CREDIT:;
#MUSIC:TRIP MACHINE survivor.mp3;
#BANNER:TRIP MACHINE survivor.png;
#BACKGROUND:TRIP MACHINE survivor-bg.png;
#CDTITLE:;
#SAMPLESTART:0.000;
#SAMPLELENGTH:0.000;
#SELECTABLE:YES;
#OFFSET:-0.267;
#BPMS:0.000=42.500
,7.000=170.000
;
#STOPS:137.250=0.353;
#DISPLAYBPM:170.000;
#BGCHANGES:;
#FGCHANGES:;

//--------------- dance-single - HellKiteChaos ----------------
#NOTES:
     dance-single:
     HellKiteChaos:
     Challenge:
     14:
     0,0,0,0,0:
0000
0000
0000
0000
,
0000
0000
0000
0000
0000
0000
1000
0100
,
0010
0100
0001
0100
1000
0001
0100
0020
,
0000
1000
0000
0001
0000
1000
0000
0100
,
0000
0001
0000
0100
0000
1030
0010
0000
,
1000
0000
0002
0000
0000
0000
0103
0010
1000
0000
0001
0000
1001
0000
0001
0000
,
0100
1000
0100
0010
0100
0001
1000
0100
,
0000
1100
0000
0101
0000
1020
1000
1030
,
0000
0011
0000
1100
0000
0101
0000
1000
,
0010
0000
0000
0000
0100
0010
1000
0000
0001
0100
0010
0000
1000
0000
0001
0000
,
0001
0000
0100
0000
0010
1000
0001
0000
1000
0000
0100
0000
0010
0001
0000
0000
,
0010
0100
0000
0000
1000
0001
1000
0000
0001
0000
0100
0000
0000
0000
0110
0000
,
0010
0000
0010
0000
1000
0000
0001
0100
0010
0000
1000
0001
1000
0000
0010
1000
,
0001
0000
1000
0000
0100
0000
0010
0000
0001
0000
1000
0000
0100
1000
0000
0000
,
0100
0010
0000
0000
0100
0001
0000
0000
0100
0010
0000
0000
0001
0000
1000
0000
,
0000
0000
0010
1000
0010
0000
0100
0000
0100
0000
0001
0000
0001
0000
1000
0000
,
0200
0000
0310
0001
1000
0010
0100
0001
,
0010
0100
1000
0001
0100
0010
1000
0000
,
1000
0000
0001
0010
0002
0010
0000
0013
,
0000
0000
0010
0000
0100
0000
1000
0000
0001
0000
0010
0000
0001
0000
1000
0001
,
2000
0000
0000
0000
0010
0000
0000
0000
3010
0000
0000
0000
0010
0000
0001
1000
,
0002
0000
0100
0000
0103
0000
0010
1000
,
2010
3000
0001
0100
0102
0003
1000
0010
,
2010
0000
3001
0000
0100
0000
0001
0000
0201
0000
0300
0000
0001
0000
0000
0100
,
0000
0000
0010
0000
1000
0000
0001
0000
0010
0000
0100
0000
1000
0000
0000
0001
,
0000
0000
1000
0000
0001
0000
0000
0100
0010
0000
0000
1000
0001
0000
0000
1000
,
0000
0100
0001
0100
1000
0010
0001
0010
,
1000
0001
0100
0010
1000
0100
0010
0000
,
0001
0010
0100
0000
0000
0000
1000
0000
0001
0000
0100
0000
1000
0000
1000
0000
,
0000
0001
0001
1000
0001
0001
0001
0020
,
0000
0100
0000
1000
1030
0000
0010
0001
,
0000
0000
1000
0000
0100
0010
0001
0000
0100
0010
0100
0000
0001
0000
1000
0000
,
0001
0000
0100
0010
1000
0000
0100
0010
0100
0000
0010
0001
1000
0000
0001
0000
,
1000
0000
0010
0100
0010
0000
1000
0000
1000
0000
0001
0010
0001
0000
1000
0100
,
0010
0002
0003
0000
0001
1000
0010
0000
,
0100
0120
0000
0130
0001
1001
0000
1200
,
0000
0000
0310
0001
0010
0000
0001
0000
0100
0000
0100
0000
0100
0000
0000
0000
,
0010
1000
0000
2010
0000
3002
0000
0103
,
0000
0000
0010
1000
0001
0000
0000
0000
1100
0000
0100
0000
0010
0000
0001
1000
,
0001
0000
0100
0000
0010
0000
1000
0000
1001
0000
0001
0100
0000
0000
0010
0100
,
0000
0022
0000
0033
2000
0010
3002
0000
,
0103
0000
0100
0000
0100
0000
0100
0001
0000
0000
0010
1000
0000
0000
0001
0100
,
0000
0000
1000
0100
0000
0000
0000
0000
0011
0000
1000
0000
2000
0000
0100
0000
,
3100
0000
0100
0000
0010
0100
0010
0000
0000
0000
0001
0010
0000
0000
0010
0100
,
0000
2200
0000
3300
0021
0031
0002
0100
,
0103
0000
0100
0000
0010
1000
0001
0000
0000
0000
1000
0100
0010
0000
0001
0100
,
0010
0000
1000
0100
0010
0000
0010
0000
0001
0000
0000
0100
0010
0000
0010
0000
,
0010
1000
0000
0001
0100
0000
0000
0000
0010
0000
1000
0001
0010
0000
0100
0000
,
0010
0001
0000
1000
0100
0000
0000
0000
0010
0000
0001
0000
0001
0000
0000
0000
,
1000
0010
0010
0000
0100
0010
0100
0010
,
1001
0000
0000
0000
0100
0000
0012
0000
1000
0000
1003
0000
1000
0000
0001
0100
,
0001
0100
0002
0000
0000
0000
0100
0000
0103
0000
0010
0000
1000
0000
0001
0000
,
0100
0001
0020
0000
0000
0000
0130
0000
0100
0000
1000
0000
0100
0000
0100
0000
,
0000
0010
0010
0000
0021
0000
0130
0000
,
1020
0000
0130
0001
0000
1000
0100
0000
,
0001
1000
0000
0001
1000
0000
0000
0001
0010
0000
0010
0000
0100
0000
0100
0000
,
1000
0000
0001
0000
0000
0000
0100
0000
0010
0000
1000
0000
0001
1000
0001
0000
,
0000
0000
1000
0100
1000
0000
0000
0000
0001
0010
0001
0000
0000
0000
1000
0010
,
1000
0001
0010
1000
0220
0000
0000
0000
,
0000
0000
0000
0000
,
0330
0000
0000
0000
;
