#TITLE:think ya better D;
#SUBTITLE:;
#ARTIST:sAmi;
#TITLETRANSLIT:;
#SUBTITLETRANSLIT:;
#ARTISTTRANSLIT:;
#GENRE:Dance Dance Revolution Solo 2000,Dance Dance Revolution 3rd Plus;
#CREDIT:;
#MUSIC:think ya better D.mp3;
#BANNER:think ya better D.png;
#BACKGROUND:think ya better D-bg.png;
#CDTITLE:;
#SAMPLESTART:0.000;
#SAMPLELENGTH:0.000;
#SELECTABLE:YES;
#OFFSET:-0.030;
#BPMS:0.000=136.000;
#STOPS:;
#DISPLAYBPM:136.000;
#BGCHANGES:;
#FGCHANGES:;

//--------------- dance-single - HellKiteChaos ----------------
#NOTES:
     dance-single:
     HellKiteChaos:
     Challenge:
     13:
     0,0,0,0,0:
0000
0000
0000
0000
,
0000
0000
0000
0000
,
0001
0010
0000
0100
1000
0000
0010
1000
,
0000
0001
0100
0000
0010
1000
0001
0000
,
1000
0100
0000
0010
0001
0000
0100
0010
,
0000
1000
0100
0000
0010
0100
1000
0000
,
0010
0100
0000
0001
0010
0000
0100
1000
,
0000
0001
0100
0000
0010
1000
0001
0000
,
0100
0010
0000
1000
0001
0000
0010
0100
,
0000
1000
0001
0000
0100
0010
1000
0000
,
0002
0023
0230
2300
3200
0320
0032
0023
,
0130
0000
0100
0000
0000
0000
1000
0001
0100
0000
0100
0000
0010
0000
0000
1000
,
0010
0000
1000
0010
0000
0010
0000
0100
0001
0000
1000
0000
1001
0000
0000
0000
,
0001
0100
0000
0001
0000
0100
0000
0010
1000
0000
1000
0000
0100
0000
0000
0000
,
0011
0000
0000
0001
0000
1000
0010
1000
0010
0000
0100
0000
0110
0000
0000
0000
,
2001
0000
0000
0000
3100
0000
0010
0001
0000
0001
1000
0001
1000
0000
0010
0000
,
0100
0000
0001
1000
0000
0100
0000
1000
0100
0000
0100
0000
0110
0000
0000
0000
,
0012
0000
0000
0000
0003
0000
1000
0010
1000
0000
0010
0000
0110
0000
0000
0000
,
0100
0000
0001
0000
0100
0000
0010
1000
0001
0000
0100
0001
1000
0000
0100
0000
,
0120
0032
2003
3020
0230
0302
2003
3200
,
0320
0032
2003
3020
0230
0302
0023
0230
,
2300
3020
0230
0302
2003
3020
0230
0302
,
0023
0230
2300
3002
0023
2030
3020
0032
,
2003
3020
0230
0302
2003
3020
0032
0023
,
2030
3002
0023
0230
2300
3200
0302
0203
,
2300
3020
0032
0023
2030
3200
0302
0203
,
2300
3020
0230
2300
3200
0320
2030
3002
,
1003
0100
1000
0000
0000
0000
0001
0010
0001
0000
0000
0000
1000
0010
1000
0000
,
0000
0000
0001
0100
0001
0000
0000
0000
1000
0000
0010
0000
0100
0000
0000
0000
,
0001
0010
0001
0000
0000
0000
1000
0010
1000
0000
0000
0000
0001
0100
0001
0000
,
0000
0000
1000
0100
1000
0000
0000
0000
0001
0000
0010
0100
1000
0000
0000
0000
,
1000
0100
1000
0000
0000
0000
0001
0010
0001
0000
0000
0000
1000
0010
1000
0000
,
0000
0000
0001
0100
0001
0000
0000
0000
1000
0000
0100
0000
0010
0000
0000
0000
,
0001
0010
0001
0000
0000
0000
1000
0010
1000
0000
0000
0000
0001
0100
0001
0000
,
0000
0000
1000
0100
1000
0000
0000
0000
0001
0000
0100
0010
1000
0000
0000
0000
,
0001
0010
0001
0000
0001
0000
1000
0010
1000
0000
1000
0000
0001
0100
0001
0000
,
0001
0000
1000
0100
1000
0000
1000
0000
0100
0000
0010
0000
0001
0000
1000
0000
,
0010
0100
0010
0100
0010
0100
0010
0100
0010
0100
0010
0100
0010
0100
0010
0100
,
0010
0100
0010
0100
0010
0100
0010
0100
0010
0100
0010
0100
0020
0000
0000
0000
,
1030
0000
0000
0000
0000
0010
0000
0100
0010
0000
0010
0000
1000
0000
0001
0000
,
1000
0000
0001
0000
0100
0000
0000
0001
0000
1000
0001
1000
0001
0000
0000
0000
,
1000
0100
1000
0010
0100
0010
0100
0001
,
1000
1000
1100
0000
0001
0010
0100
0000
,
1000
0100
0000
0100
0000
0010
0000
0001
0010
0000
0001
0010
0000
0000
0001
0000
,
0100
1000
0100
0001
0100
0010
0100
0010
,
0110
0000
1000
0010
0000
1000
0010
1000
0001
0000
0010
0000
0011
0000
0000
0000
,
0001
0010
0000
0010
0000
0100
0000
1000
0000
0100
0000
0010
0001
0010
0001
0010
,
0001
0100
0101
0001
0010
1000
1100
0100
,
0010
0001
0100
0010
1000
0100
0110
0001
,
1000
0001
1000
0000
0000
0000
0001
1000
0001
0000
0100
0000
0010
0000
1000
0000
,
0001
0010
0100
1000
0010
0100
0101
0001
,
2000
0000
0000
0000
3100
0000
0000
0000
0010
0001
0000
0001
0000
1000
0001
0000
,
0100
0000
1100
0000
0001
0100
0010
1000
,
1100
0000
0000
0000
;
