#TITLE:THE CUBE;
#SUBTITLE:;
#ARTIST:DJ SUWAMI;
#TITLETRANSLIT:;
#SUBTITLETRANSLIT:;
#ARTISTTRANSLIT:;
#GENRE:;
#CREDIT:;
#MUSIC:THE CUBE.mp3;
#BANNER:THE CUBE.png;
#BACKGROUND:THE CUBE-bg.png;
#CDTITLE:;
#SAMPLESTART:0.000;
#SAMPLELENGTH:0.000;
#SELECTABLE:YES;
#OFFSET:-1.298;
#BPMS:0.000=178.150;
#STOPS:;
#DISPLAYBPM:178.000;
#BGCHANGES:;
#FGCHANGES:;

//--------------- dance-single - HellKiteChaos ----------------
#NOTES:
     dance-single:
     HellKiteChaos:
     Challenge:
     13:
     0,0,0,0,0:
0000
0000
0000
0000
,
0000
0000
0000
0000
,
0000
0001
0010
0100
1000
0001
0000
1000
,
0000
0000
0010
0000
0000
0000
0100
0001
0100
0001
0100
0000
0000
0000
0000
0000
,
0110
0000
0000
1010
0000
0000
1100
0000
,
0100
0010
0100
0000
0010
0100
0010
0001
,
1000
0010
0000
0110
0000
0101
0000
0001
,
1000
0100
0010
0001
1000
0100
0010
0000
,
0011
0000
0000
1001
0000
0000
0201
0000
,
0310
1000
0000
0010
1000
0100
1000
0000
,
0001
0010
0100
1000
0010
0100
0001
0000
,
1000
0000
0100
0000
0000
0000
0010
0001
0010
0000
0100
0000
0000
0000
1000
0000
,
0010
0010
0010
0100
0010
1000
0001
0000
,
1000
0010
1000
0000
0001
0000
0010
0001
0010
0000
0001
0000
0100
0010
0100
0000
,
0001
1000
0000
1000
0100
1000
0010
0000
,
0110
0000
0000
0101
0000
0001
1001
0000
,
1000
1100
0100
0000
0010
0001
1000
0001
,
2000
0000
3010
0100
0010
0100
0001
0000
,
1000
0100
0000
0010
0001
0010
0001
0000
,
0100
0001
0000
1000
0010
0100
0001
0000
,
1000
0010
0000
0100
0001
0100
0001
0000
,
1000
0100
0001
0100
1000
0001
1000
0000
,
0010
0100
0000
0001
0010
0100
1000
0000
,
0001
0100
0001
0000
1000
0000
0010
0000
,
0100
0010
0010
0110
0000
0000
2001
0000
,
3100
0010
0001
0000
1000
0000
0010
0000
0000
0000
0010
0000
0100
0000
0010
0000
,
1000
0000
0100
0000
0100
0000
1100
0000
0000
0000
0010
0001
1000
0000
0010
0000
,
1000
0010
0100
0001
0100
0001
1000
0000
,
0010
1000
0010
0000
1000
0000
0001
0010
0001
0000
0100
0000
0010
0100
0010
0000
,
1000
0010
0100
0000
0001
1000
0100
0000
,
0010
0001
0010
0000
0001
0000
1000
0010
1000
0000
0001
0000
1000
0000
0000
0000
,
0001
0100
0001
0101
0000
1000
0100
0001
,
0100
1100
0000
0000
0110
0000
0000
0000
,
0002
0100
0000
0103
,
2020
0000
0000
3030
,
1000
0000
1000
0000
0010
1000
0010
0100
,
0001
0010
0001
0010
0100
1000
0100
1000
0001
0000
0110
0000
0000
0000
0000
0000
,
1001
1000
0000
0010
0100
0010
1000
0000
,
0100
0010
0001
1000
0100
1000
0001
0000
,
2000
0000
3010
0100
0000
0001
1000
0100
,
0010
0012
0000
0003
2100
0000
3200
0000
,
0310
0001
0000
0100
0010
0100
0001
0000
,
0000
0101
0100
0100
0010
1000
0001
0100
,
0001
0010
0100
1000
0010
0100
0001
1000
,
0100
0010
0001
0010
0001
1000
0100
0010
0001
0000
0110
0000
0000
0000
0000
0000
,
1001
0000
1000
0000
0001
0100
0000
0010
,
2000
3002
0010
0013
,
0100
1000
0000
0010
1000
0001
1000
0110
,
0000
0001
1000
0001
0100
0010
1000
0000
,
0010
0100
0000
0010
0100
0001
0000
1000
,
0100
0000
0010
0001
0010
0001
0100
0000
,
0010
0000
1000
0000
0001
1000
0100
1000
,
0001
0000
1000
0000
0000
0000
0010
0000
0100
0000
0101
0000
0000
0000
1000
0100
,
0010
0001
0000
0100
0010
0100
0010
1000
,
0001
1000
0100
0010
0001
1000
0010
0000
,
0110
0000
0100
0000
0001
0100
0010
0000
,
1000
0100
0001
0100
1000
0100
0010
0001
,
0100
0000
0010
0010
0000
1000
1000
0100
,
2000
0000
3001
0100
0010
0100
0001
0000
,
1000
0001
0100
0000
0001
0000
1000
0000
0001
1000
0100
0000
0010
0000
0001
0000
,
1000
0010
0100
0001
0010
0100
1000
0001
,
0110
0000
0000
0000
,
1100
0000
0000
1010
0000
0000
0011
0000
,
0101
0000
0000
0000
,
1100
0000
0000
0101
0000
0000
0011
0000
,
1010
0000
0000
0000
,
1100
0000
0000
1010
0000
0000
0011
0000
,
0001
0100
0000
0001
0010
0000
1000
0100
,
0000
1000
0010
0000
1000
0100
0010
0001
,
0220
0000
0330
0000
;
