#TITLE:THAT'S THE WAY (I LIKE IT);
#SUBTITLE:;
#ARTIST:KC & THE SUNSHINE BAND;
#TITLETRANSLIT:;
#SUBTITLETRANSLIT:;
#ARTISTTRANSLIT:;
#GENRE:;
#CREDIT:;
#MUSIC:THAT'S THE WAY (I LIKE IT).mp3;
#BANNER:;
#BACKGROUND:THAT'S THE WAY (I LIKE IT)-bg.png;
#CDTITLE:;
#SAMPLESTART:0.000;
#SAMPLELENGTH:0.000;
#SELECTABLE:YES;
#OFFSET:-0.073;
#BPMS:0.000=109.140
,14.000=112.140
,16.000=108.140
,28.000=109.140
,32.000=108.650
,35.000=109.650
,48.000=110.530
,51.000=108.530
,53.000=111.530
,56.000=110.530
,63.000=108.530
,64.000=108.840
,73.000=109.840
,75.000=108.840
,78.000=109.840
,79.000=110.840
,80.000=108.950
,96.000=109.840
,112.000=110.310
,128.000=108.280
,144.000=107.980
;
#STOPS:;
#BGCHANGES:;
#FGCHANGES:;

//--------------- dance-single - HellKiteChaos ----------------
#NOTES:
     dance-single:
     HellKiteChaos:
     Challenge:
     12:
     0,0,0,0,0:
0000
0000
0000
0000
,
0000
0000
0000
0000
,
0000
0000
0000
0000
,
0000
0000
0000
0000
,
1001
0000
0000
0100
0010
0000
1000
0000
0100
0000
0010
0000
0001
0000
0101
0000
,
0110
0000
0000
1000
0001
0000
0010
0000
0100
0000
1000
0000
0001
0000
0000
0000
,
0101
0000
0000
0010
0100
0000
0001
0000
0010
0000
1000
0000
0010
0000
0011
0000
,
1001
0000
0000
0010
0100
0000
0001
0000
0010
0000
0100
0000
1000
0000
0000
0000
,
0001
0000
0001
0010
0000
0010
0100
0000
1000
0000
0001
0000
1000
0000
0000
0000
,
0010
0000
0100
0001
0000
0001
1000
0000
0001
0000
0010
0000
0100
0000
0000
0000
,
1000
0000
0100
0010
0000
0010
0001
0000
1000
0000
0001
0000
0100
0000
0000
0000
,
2010
3100
0012
0103
,
1001
0000
0010
0100
0000
0001
1000
0000
0100
0000
0010
0000
0100
0000
0000
0000
,
1001
0000
1000
0010
0000
0100
0001
0000
0010
0001
0100
0000
0001
0000
0000
0000
,
1001
0000
0001
0010
0000
0100
1000
0000
0010
1000
0100
0000
1000
0000
0001
0000
,
0101
1010
1100
0011
,
2001
0000
0000
3010
0100
0000
0001
0000
0100
0000
1000
0000
0100
0000
0101
0000
,
1002
0000
0000
0013
0100
0000
1000
0000
0100
0000
0001
0000
0100
0000
0000
0000
,
1002
0000
0000
0103
0010
0000
1000
0000
0010
0000
0001
0000
0010
0000
1010
0000
,
1002
0000
0000
0013
0100
0000
1000
0000
0100
0000
0001
0000
0100
0000
0000
0000
,
1002
0000
0000
0103
0010
0000
1000
0000
0100
0000
0010
0000
0001
0000
0101
0000
,
0120
0000
0000
1030
0001
0000
0010
0000
0100
0000
1000
0000
0001
0000
0000
0000
,
0201
0000
0000
0310
0100
0000
0001
0000
0010
0000
1000
0000
0010
0000
0011
0000
,
2001
0000
0000
3010
0100
0000
0001
0000
0010
0000
0100
0000
1000
0000
0000
0000
,
0002
0000
0000
0000
0000
0000
0003
1000
0001
0000
0001
0000
0100
0000
0010
0000
,
2000
3200
0320
0032
,
2003
0000
0000
0000
0000
0000
0000
3001
1000
0000
0010
0000
0100
0000
0001
0000
,
2000
3200
0302
0203
,
2300
0000
0000
0000
0010
0000
0000
0000
0100
0000
3000
0010
0100
0000
0001
0000
,
0010
0100
1000
0100
0010
0001
1000
0000
,
0201
0000
0000
0000
0010
0000
0000
0000
0001
0300
0000
0100
0010
0000
1000
0000
,
2002
0000
3003
0000
,
1002
0000
0000
0103
0010
0000
1000
0000
0100
0000
0010
0000
0001
0000
0101
0000
,
0120
0000
0000
1030
0001
0000
0010
0000
0100
0000
1000
0000
0001
0000
0000
0000
,
0201
0000
0000
0310
0100
0000
0001
0000
0010
0000
1000
0000
0010
0000
0011
0000
,
2001
0000
0000
3010
0100
0000
0001
0000
0010
0000
0100
0000
1000
0000
0000
0000
,
2001
0000
0000
3010
0100
0000
0001
0000
0010
0000
0100
0000
1000
0000
1001
0000
,
1020
0000
0000
0130
0001
0000
0010
0000
0100
0000
1000
0000
0001
0000
0000
0000
,
1002
0000
0000
0013
0100
0000
1000
0000
0010
0000
0100
0000
0001
0000
0011
0000
,
0210
0000
0000
1300
0001
0000
0100
0000
0010
0000
1100
0000
0101
0000
0000
0000
;
