#TITLE:SYNCHRONIZED LOVE (Red Monster Hyper Mix);
#SUBTITLE:;
#ARTIST:JOE RINOIE;
#TITLETRANSLIT:;
#SUBTITLETRANSLIT:;
#ARTISTTRANSLIT:;
#GENRE:;
#CREDIT:;
#MUSIC:SYNCHRONIZED LOVE (Red Monster Hyper Mix).mp3;
#BANNER:SYNCHRONIZED LOVE (Red Monster Hyper Mix).png;
#BACKGROUND:SYNCHRONIZED LOVE (Red Monster Hyper Mix)-bg.png;
#CDTITLE:;
#SAMPLESTART:0.000;
#SAMPLELENGTH:0.000;
#SELECTABLE:YES;
#OFFSET:-0.039;
#BPMS:0.000=150.000;
#STOPS:;
#DISPLAYBPM:150.000;
#BGCHANGES:;
#FGCHANGES:;

//--------------- dance-single - HellKiteChaos ----------------
#NOTES:
     dance-single:
     HellKiteChaos:
     Challenge:
     14:
     0,0,0,0,0:
0000
0000
0000
0000
,
0000
0000
0000
0000
,
1000
0000
0010
0000
0100
0000
0001
0000
1000
0001
1000
0001
0000
1000
0100
1000
,
0100
0000
0100
0010
0000
0010
0001
0000
0001
1000
0000
0010
0000
1000
0010
1000
,
0100
0000
0100
0000
0010
0000
0001
0000
1000
0100
0000
0100
0000
0010
0001
0000
,
0011
0000
0000
1100
0000
0000
0110
0000
0010
0001
0000
0010
0001
0000
0000
0000
,
1000
0010
1000
0010
0100
0001
1000
0100
,
0010
0001
0100
0001
0010
0001
0100
0000
,
0010
1000
0001
0010
0001
1000
0100
0010
,
0001
0100
0010
0100
0001
0100
0010
0010
,
1000
0100
0010
0001
1000
0010
0001
0000
,
1000
0100
0001
1000
0100
0010
0001
0000
,
1000
0000
0010
0000
0100
0000
0000
0000
0001
0000
0010
0100
0010
0100
1000
0100
,
1000
0010
1001
1000
0010
0110
0110
0000
,
0001
0000
1000
0000
0100
0000
1000
0000
0001
0000
0010
0000
0100
0000
1000
0010
,
0100
0000
0001
0000
0100
0000
0001
0000
1000
0000
0010
0000
0100
0000
0001
0010
,
0100
0000
0010
0000
0100
0000
0010
0000
0100
0000
1000
0000
0001
0000
1000
0010
,
0100
0000
0001
0000
0100
0000
0010
0000
1000
0000
0010
0000
0100
0000
0001
1000
,
0100
0100
0010
0000
0001
0001
0100
0000
,
0010
0010
1000
0001
0010
0100
1000
0000
,
1100
1001
0101
1001
,
0010
0000
1000
0000
0001
0000
0100
0000
0010
1000
0000
0001
0100
0000
0001
1000
,
0001
1000
1100
0000
1000
0001
0101
0000
,
1000
0001
0011
0000
0001
1000
1010
0000
,
1000
0010
1000
0010
0100
0010
0100
0010
,
0100
0001
1000
0100
0010
0001
1000
0000
,
0001
0001
0010
0010
0000
0110
0110
0000
,
1000
1000
0010
0010
0000
0110
0110
0000
,
0001
0000
0100
0000
0010
0000
0100
0000
0000
0000
0001
0100
0001
1000
0100
1000
,
0001
0000
0101
0000
1010
1000
1100
0000
,
0010
0000
0001
0000
1000
0001
1000
0000
0001
0000
0100
0000
0010
0100
0010
0000
,
1000
0000
0001
0000
1000
0100
1000
0000
0001
0000
0010
0000
0100
0010
0100
0000
,
1000
0000
0001
0000
0100
0001
0100
0000
0010
0000
1000
0000
0100
0000
0010
0000
,
0001
0100
0010
0000
0110
0000
1001
0001
,
0001
0000
1000
0000
0001
0010
0100
0000
1000
0000
0001
0000
1000
0010
0100
0000
,
0001
0000
1000
0000
0100
0010
0001
0000
1000
0000
0001
0000
0100
0010
1000
0000
,
0001
0000
0010
0000
0100
1000
0001
0000
0100
0000
0010
0000
1000
0001
0010
0000
,
0100
0000
1000
0000
0010
0000
0100
0000
0010
0000
1000
0010
0000
0100
0001
0100
,
0001
1000
0100
0000
0010
0010
0010
0011
,
0000
0001
0100
0010
1000
0100
0010
0001
,
0100
0010
1010
0000
0100
0100
0100
0110
,
0000
0000
0010
0000
1000
0000
0010
0000
1000
0000
0010
0100
0000
0001
1000
0010
,
0100
0000
0001
0000
1000
0100
0010
0000
0001
0000
1000
0000
0001
0100
0010
0000
,
1000
0000
0001
0000
0010
0100
1000
0000
0001
0000
1000
0000
0010
0100
0001
0000
,
1000
0000
0100
0000
0010
0001
0010
0000
0001
0000
0100
0000
0010
1000
0010
0000
,
1000
0100
0010
0001
0100
0010
0110
0010
,
1000
0000
0001
0000
1000
0001
0100
0000
0001
0000
1000
0000
0001
1000
0100
0000
,
1000
0000
0001
0000
0010
0100
1000
0000
0001
0000
1000
0000
0010
0100
0001
0000
,
1000
0000
0100
0000
0010
0001
0100
0000
0010
0000
0100
0000
0010
1000
0100
0000
,
0010
0001
0100
0000
0010
0000
0000
0000
1000
0000
0001
1000
0000
1000
0100
1000
,
0001
0001
0011
0000
0010
0010
0010
0110
,
0000
0100
1000
0010
0100
0001
0010
0100
,
1000
1000
1010
0000
1000
1000
1000
1001
,
0000
0010
0110
0100
0001
1000
0010
0100
,
0001
0000
0001
0010
0000
0010
0100
0000
0100
1000
0000
1000
0001
1000
0001
0010
,
0001
0000
1000
0100
0000
0010
0001
0000
1000
0100
0000
0010
0001
0100
0001
0100
,
0001
0000
0001
0000
1000
0000
1000
0000
0010
0100
0000
0100
0000
0001
0100
0001
,
1000
0000
0000
0001
0000
0000
1000
0000
0010
0100
0000
0010
0100
0000
0000
0000
;
