#TITLE:SUPER STAR;
#SUBTITLE:;
#ARTIST:D.J.RICH feat. Tailbros.;
#TITLETRANSLIT:;
#SUBTITLETRANSLIT:;
#ARTISTTRANSLIT:;
#GENRE:Dance Dance Revolution Solo Bass Mix,Dance Dance Revolution 4th Mix;
#CREDIT:;
#MUSIC:SUPER STAR.mp3;
#BANNER:SUPER STAR.png;
#BACKGROUND:SUPER STAR-bg.png;
#CDTITLE:;
#SAMPLESTART:0.000;
#SAMPLELENGTH:0.000;
#SELECTABLE:YES;
#OFFSET:-0.049;
#BPMS:0.000=128.018;
#STOPS:;
#DISPLAYBPM:128.000;
#BGCHANGES:;
#FGCHANGES:;

//--------------- dance-single - HellKiteChaos ----------------
#NOTES:
     dance-single:
     HellKiteChaos:
     Challenge:
     15:
     0,0,0,0,0:
0000
0000
0000
0000
,
0000
0000
0000
0000
,
0000
0000
0000
0000
,
0000
0000
0000
0000
,
0001
0000
0000
1000
0100
0000
0010
0001
0010
0000
0001
0000
0001
0000
0000
0000
,
1000
0000
0000
0010
0100
0000
0100
0000
0001
0100
0010
0100
0001
1000
0010
0000
,
0000
0000
0100
0000
0110
0000
0000
0010
0100
0000
0001
0000
1001
0000
0000
1000
,
0100
0010
0000
0001
0100
0010
0000
1000
0100
0010
0001
1000
0100
0000
0000
0000
,
0020
0000
0001
0000
0031
0000
1000
0000
1000
0001
0000
0001
0000
0000
1000
0001
,
0200
0000
0010
0000
0310
0000
1000
0000
0001
0100
0000
0100
0000
0000
0010
1000
,
0002
0000
0010
0000
0013
0000
0001
0000
1000
0100
0000
0100
0000
1000
0001
1000
,
0001
0000
1000
0000
0010
0100
0010
0100
0001
0000
1000
0000
1001
0000
0000
0000
,
0002
0000
0010
0000
0023
0000
0130
0000
1000
0100
1000
0100
0010
0000
0001
0000
,
2000
0000
0010
0000
3020
0000
0130
0000
0001
0100
0001
0100
0010
1000
0001
0000
,
2000
0000
0100
0000
3200
0000
0310
0000
0001
0010
0000
0001
0010
0000
0001
0000
,
1000
0000
0100
0010
0100
0000
1000
0000
0001
0000
1000
0000
1001
0000
0000
0000
,
0001
0100
0010
1000
0001
0100
0010
1000
0001
0100
0020
0000
0000
0000
1030
0001
,
0000
0000
1000
0100
0010
0001
1000
0100
0010
0001
2000
0000
0000
0000
3001
0010
,
0100
1000
0001
0010
0100
1000
0001
0010
0100
1000
0002
0000
0000
0000
1003
0010
,
0100
0001
1000
0010
0100
0001
1000
0100
0010
0001
1000
0001
2000
0000
0000
0000
,
3002
0000
0010
0000
2003
0000
0010
0000
3001
0000
1000
0000
0110
0000
0001
1000
,
0001
0010
0100
1000
0001
0010
0100
1000
0002
0000
0100
0000
2003
0000
3002
0000
,
2003
0000
0010
0000
3002
0000
0100
0000
2003
0000
0010
0000
3001
0000
0000
0010
,
0100
1000
0000
0010
0100
0001
0000
0010
0100
1000
0001
0010
0100
0000
0100
0000
,
0100
0000
0010
0000
0001
0000
1000
0010
1000
0010
1000
0010
0100
0000
0001
0000
,
1000
0000
1000
0000
0100
0000
0010
0000
0001
0100
0001
0100
0010
0000
0010
0000
,
1000
0000
0001
0000
0100
0000
0100
0000
0010
1000
0010
1000
0001
0000
1000
0000
,
0100
0000
0100
0000
0010
0000
0001
1000
0001
1000
0100
0010
0002
0000
0000
0000
,
1003
0000
0010
0000
1000
0000
0001
0000
1000
0000
0100
0010
0100
0000
0010
0000
,
0001
0010
0100
0010
0100
1000
0001
0010
0100
0010
0100
1000
0001
0000
1000
0000
,
0010
1000
0010
1000
0001
0000
0100
0000
0001
0100
0001
0100
0010
0000
1000
0000
,
0001
0100
0010
1000
0001
0100
0010
1000
0001
0010
0100
1000
0001
0000
0000
0000
,
2001
0100
0100
0100
0010
0010
3200
0000
,
0300
1001
0000
0102
0100
0100
0020
0033
,
0011
2100
0100
0100
0010
0010
3100
0000
,
0001
0010
0100
1000
0001
0010
0100
1000
0010
0100
0001
1000
0010
0100
0001
1000
,
0001
0000
1000
0100
1000
0100
0010
0000
0001
1000
0001
1000
0010
0100
0001
0100
,
0001
0100
0010
1000
0001
0100
0010
1000
0000
0010
1000
0001
0100
0000
0010
0000
,
1000
0100
1000
0100
1000
0010
1000
0000
0001
0010
0001
0010
0100
1000
0001
0010
,
0100
1000
1100
1000
0001
0100
0101
0001
,
0100
0000
0010
0000
0100
0001
0010
0001
0000
1000
0001
1000
0001
0000
0100
0001
,
0100
0001
0100
0000
0010
1000
0010
0000
0100
0001
0000
0010
0001
0000
0010
0000
,
0100
0000
1000
0100
0010
0000
0010
0000
0001
1000
0001
1000
0001
0000
0100
0000
,
0010
1000
0001
1000
0010
0000
0100
0001
1000
0001
0100
0000
0010
1000
0100
0010
,
0002
0003
0000
0000
;
